当前位置: 首页 >> 港台电影 >> 甜蜜杀机[国语音轨/繁英字幕].Sweet.Alibis.2014.BluRay.1080p.DTS-HD.MA.5.1.x265.10bit-ALT 5.73GB >> 正文

甜蜜杀机[国语音轨/繁英字幕].Sweet.Alibis.2014.BluRay.1080p.DTS-HD.MA.5.1.x265.10bit-ALT 5.73GB

2022年04月24日 22:28:54     电影发布:来源于网络     电影分类:港台电影     评论(0)    

甜蜜杀机[国语音轨/繁英字幕].Sweet.Alibis.2014.BluRay.1080p.DTS HD.MA.5.1.x265.10bit ALT 5.73GB  港台电影  第1张

◎译 名 甜蜜杀机 / Sweet Alibis

◎片 名 甜蜜殺機

◎年 代 2014

◎产 地 中国台湾

◎类 别 喜剧 / 爱情 / 犯罪

◎语 言 汉语普通话

◎上映日期 2014-03-07(中国大陆) / 2014-01-17(中国台湾)

◎IMDb链接 https://www.imdb.com/title/tt3582088/

◎豆瓣评分 6.0/10 (14304人评价)

◎豆瓣链接 https://movie.douban.com/subject/21765841/

◎片 长 101分钟(中国大陆)

◎导 演 连奕琦 Yi-chi Lien (id:1316302)

◎编 剧 于尚民 Johnny Yu (id:1315742)

陈嘉振 Jia-jhen Chen (id:1338061)

连奕琦 Yi-chi Lien (id:1316302)

◎演 员 苏有朋 Alec Su (id:1050540)

林依晨 Ariel Lin (id:1042053)

吴中天 Matt Wu (id:1313736)

雷洪 Hong Lei (id:1330808)

郎祖筠 Tsu-Yun Lang (id:1320970)

马念先 Nien-Hsien Ma (id:1274681)

林暐恒 Ken Lin (id:1326912)

朱芷莹 Chih-ying Chu (id:1322666)

高盟杰 Jay Kao (id:1312995)

林柏宏 Austin Lin (id:1275324)

杜妍 Yen Tu (id:1361081)

徐献谦 Hsien Chien Hsu (id:1370249)

吴绍君 Shao Chun Wu (id:1370248)

张峰硕 Feng Shuo Chang (id:1370246)

高翊峰 Yi-feng Kao (id:1365502)

陈鹏州 Peng Chou Chen (id:1370250)

桑杉学 Vincent Sang (id:1370255)

黄鹏仁 Peng Jen Huang (id:1370254)

异凡 Fan I (id:1370251)

林智祥 Chi-shiang Lin (id:1349769)

邱书峰 Shu Feng Chiu (id:1370252)

陈荣彬 Jung Bin Chen (id:1370253)

陶传正 Chuan-cheng Tao (id:1313481)

张再兴 Tsai-Hsing Chang (id:1358342)

林韦伶 Estrella Lin (id:1325658)

Chi Lin Li (id:1370247)

李国弘 Kuo-hung Li (id:1370198)

杨琬茜 Wan Chien Yang (id:1370241)

车亮逸 Randy Che (id:1350598)

林雍益 Ian Lin (id:1370244)

李栋全 Wenders Li (id:1275162)

郭怡君 Y.C Kuo (id:1370242)

林育妘 Emma Lin (id:1370243)

王威翔 Weica Wang (id:1431058)

杜笃之 Du-Che Tu (id:1275159)

◎简 介

资深刑警王志毅(苏有朋 饰),办案效率奇差,婚姻介绍的相亲照看得比嫌犯照还认真,对危险的任务预感奇准,总能在适当的时刻拉肚子躲警报。 但这一次,一向不被长官器重的志毅,突然被指派一项超级任务──监视刚从警校毕业的新进同事高依萍(林依晨 饰)。原来高依萍是警察署长的女儿,署长说不动女儿放弃当警察,只好细心挑选女儿的搭挡。经过考量,擅于闪躲任务、求安全的志毅正是最佳人选!

从搭挡的第一天起,两人就被上司故意发配处理闲差,志毅乐得开心,依萍的热情却被浇了一大盆冷水。依萍的满腔热血,碰上了志毅的吊儿郎当,两人成天斗嘴,成了水火不容的冤家搭挡。 然而,他们却在一桩调查社区小狗意外死亡案件的过程中,误打误撞地查到遭通缉毒贩草纸(吴中天 饰)的下落,也因而卷入一起连续凶杀案。

第一次碰到棘手的案子,依萍兴奋地想要要揪出幕后凶手,证明自己,志毅却一心只想把依萍拉出危...

◎获奖情况 (共1项)

第51届台北金马影展 (2014)

金马奖 最佳女配角(提名)

└──郎祖筠 (id:1320970)

  1. ##### MediaInfo ######

  2. General

  3. Unique ID : 276951781876010111428713050822925597851 (0xD05AF915A70A8D549A1E65D6DBD7BC9B)

  4. Complete name : Sweet.Alibis.2014.BluRay.1080p.DTS-HD.MA.5.1.x265.10bit-ALT.mkv

  5. Format : Matroska

  6. Format version : Version 4

  7. File size : 5.73 GiB

  8. Duration : 1 h 53 min

  9. Overall bit rate mode : Variable

  10. Overall bit rate : 7 204 kb/s

  11. Encoded date : UTC 2022-04-24 02:54:46

  12. Writing application : mkvmerge v49.0.0 ('Sick Of Losing Soulmates') 64-bit

  13. Writing library : libebml v1.4.0 + libmatroska v1.6.1

  14. Video

  15. ID : 1

  16. Format : HEVC

  17. Format/Info : High Efficiency Video Coding

  18. Format profile : Main [email protected]@High

  19. Codec ID : V_MPEGH/ISO/HEVC

  20. Duration : 1 h 53 min

  21. Bit rate : 5 329 kb/s

  22. Width : 1 920 pixels

  23. Height : 816 pixels

  24. Display aspect ratio : 2.35:1

  25. Frame rate mode : Constant

  26. Frame rate : 24.000 FPS

  27. Color space : YUV

  28. Chroma subsampling : 4:2:0

  29. Bit depth : 10 bits

  30. Bits/(Pixel*Frame) : 0.142

  31. Stream size : 4.24 GiB (74%)

  32. Title : HEVC, [email protected]@High, 24 fps @ 5329 kbps

  33. Writing library : x265 3.5+36-1f2c8da77:[Windows][GCC 11.2.0][64 bit] 10bit

  34. Encoding settings : cpuid=533541111039 / frame-threads=4 / numa-pools=16 / wpp / pmode / pme / no-psnr / no-ssim / log-level=2 / input-csp=1 / input-res=1920x816 / interlace=0 / total-frames=163850 / level-idc=51 / high-tier=1 / uhd-bd=0 / ref=5 / no-allow-non-conformance / no-repeat-headers / annexb / no-aud / no-eob / no-eos / no-hrd / info / hash=0 / no-temporal-layers / open-gop / min-keyint=24 / keyint=240 / gop-lookahead=0 / bframes=6 / b-adapt=2 / b-pyramid / bframe-bias=0 / rc-lookahead=40 / lookahead-slices=0 / NTMzNTQ=uuDQuD2mJt9fsCf / scenecut=40 / no-hist-scenecut / radl=0 / no-splice / no-intra-refresh / ctu=32 / min-cu-size=8 / no-rect / no-amp / max-tu-size=32 / tu-inter-depth=3 / tu-intra-depth=3 / limit-tu=4 / rdoq-level=2 / dynamic-rd=0.00 / no-ssim-rd / signhide / no-tskip / nr-intra=0 / nr-inter=0 / no-constrained-intra / no-strong-intra-smoothing / max-merge=4 / limit-refs=1 / limit-modes / me=3 / subme=4 / merange=25 / temporal-mvp / no-frame-dup / no-hme / weightp / weightb / no-analyze-src-pics / deblock=-3:-3 / no-sao / no-sao-non-deblock / rd=6 / selective-sao=0 / no-early-skip / rskip / no-fast-intra / no-tskip-fast / no-cu-lossless / b-intra / no-splitrd-skip / rdpenalty=0 / psy-rd=2.00 / psy-rdoq=1.00 / no-rd-refine / no-lossless / cbqpoffs=0 / crqpoffs=0 / rc=crf / crf=17.0 / qcomp=0.65 / qpstep=4 / stats-write=0 / stats-read=0 / vbv-maxrate=80000 / vbv-bufsize=80000 / vbv-init=0.9 / min-vbv-fullness=50.0 / max-vbv-fullness=80.0 / crf-max=0.0 / crf-min=0.0 / ipratio=1.40 / pbratio=1.30 / aq-mode=2 / aq-strength=0.85 / cutree / zone-count=0 / no-strict-cbr / qg-size=32 / no-rc-grain / qpmax=69 / qpmin=0 / no-const-vbv / sar=1 / overscan=0 / videoformat=5 / range=0 / colorprim=1 / transfer=1 / colormatrix=1 / chromaloc=0 / display-window=0 / cll=0,0 / min-luma=0 / max-luma=1023 / log2-max-poc-lsb=8 / vui-timing-info / vui-hrd-info / slices=1 / no-opt-qp-pps / no-opt-ref-list-length-pps / no-multi-pass-opt-rps / scenecut-bias=0.05 / hist-threshold=0.03 / no-opt-cu-delta-qp / no-aq-motion / no-hdr10 / no-hdr10-opt / no-dhdr10-opt / no-idr-recovery-sei / analysis-reuse-level=0 / analysis-save-reuse-level=0 / analysis-load-reuse-level=0 / scale-factor=0 / refine-intra=0 / refine-inter=0 / refine-mv=1 / refine-ctu-distortion=0 / no-limit-sao / ctu-info=0 / no-lowpass-dct / refine-analysis-type=0 / copy-pic=1 / max-ausize-factor=1.0 / no-dynamic-refine / no-single-sei / no-hevc-aq / no-svt / no-field / qp-adaptation-range=1.00 / scenecut-aware-qp=0conformance-window-offsets / right=0 / bottom=0 / NTMzNTQ= / decoder-max-rate=0 / no-vbv-live-multi-pass

  35. Language : English

  36. Default : Yes

  37. Forced : No

  38. Color range : Limited

  39. Color primaries : BT.709

  40. Transfer characteristics : BT.709

  41. Matrix coefficients : BT.709

  42. Audio #1

  43. ID : 2

  44. Format : DTS XLL

  45. Format/Info : Digital Theater Systems

  46. Commercial name : DTS-HD Master Audio

  47. Codec ID : A_DTS

  48. Duration : 1 h 53 min

  49. Bit rate mode : Variable

  50. Bit rate : 1 562 kb/s

  51. Channel(s) : 6 channels

  52. Channel layout : C L R Ls Rs LFE

  53. Sampling rate : 48.0 kHz

  54. Frame rate : 93.750 FPS (512 SPF)

  55. Bit depth : 16 bits

  56. Compression mode : Lossless

  57. Stream size : 1.24 GiB (22%)

  58. Title : Mandarin DTS-HD Master Audio 5.1 @ 1509 kbps

  59. Language : Chinese

  60. Default : Yes

  61. Forced : No

  62. Audio #2

  63. ID : 3

  64. Format : AC-3

  65. Format/Info : Audio Coding 3

  66. Commercial name : Dolby Digital

  67. Codec ID : A_AC3

  68. Duration : 1 h 53 min

  69. Bit rate mode : Constant

  70. Bit rate : 192 kb/s

  71. Channel(s) : 2 channels

  72. Channel layout : L R

  73. Sampling rate : 48.0 kHz

  74. Frame rate : 31.250 FPS (1536 SPF)

  75. Compression mode : Lossy

  76. Stream size : 156 MiB (3%)

  77. Title : Mandarin Dolby Digital Audio 2.0 @ 192 kbps Commentary

  78. Language : Chinese

  79. Service kind : Complete Main

  80. Default : No

  81. Forced : No

  82. Text #1

  83. ID : 4

  84. Format : PGS

  85. Codec ID : S_HDMV/PGS

  86. Codec ID/Info : Picture based subtitle format used on BDs/HD-DVDs

  87. Duration : 1 h 49 min

  88. Bit rate : 39.6 kb/s

  89. Count of elements : 4250

  90. Stream size : 30.9 MiB (1%)

  91. Title : Cht/SUP 原盘繁体

  92. Language : Chinese

  93. Default : Yes

  94. Forced : No

  95. Text #2

  96. ID : 5

  97. Format : PGS

  98. Codec ID : S_HDMV/PGS

  99. Codec ID/Info : Picture based subtitle format used on BDs/HD-DVDs

  100. Duration : 1 h 49 min

  101. Bit rate : 43.8 kb/s

  102. Count of elements : 4250

  103. Stream size : 34.2 MiB (1%)

  104. Title : Eng/SUP

  105. Language : English

  106. Default : No

  107. Forced : No

  108. Text #3

  109. ID : 6

  110. Format : PGS

  111. Codec ID : S_HDMV/PGS

  112. Codec ID/Info : Picture based subtitle format used on BDs/HD-DVDs

  113. Duration : 1 h 49 min

  114. Bit rate : 37.6 kb/s

  115. Count of elements : 3200

  116. Stream size : 29.6 MiB (1%)

  117. Title : Cht/SUP 原盘繁体 Commentary

  118. Language : Chinese

  119. Default : No

  120. Forced : No

  121. Menu

  122. 00:00:00.000 : en:第 01 章

  123. 00:08:00.000 : en:第 02 章

  124. 00:16:47.708 : en:第 03 章

  125. 00:25:58.208 : en:第 04 章

  126. 00:34:57.750 : en:第 05 章

  127. 00:43:08.833 : en:第 06 章

  128. 00:50:51.292 : en:第 07 章

  129. 00:58:21.417 : en:第 08 章

  130. 01:05:06.500 : en:第 09 章

  131. 01:14:08.375 : en:第 10 章

  132. 01:22:01.833 : en:第 11 章

  133. 01:30:38.833 : en:第 12 章

  134. 01:36:22.958 : en:第 13 章

  135. 01:41:54.042 : en:第 14 章

  136. 01:47:54.958 : en:第 15 章


复制代码



文件下载


除非特别注明,本文『甜蜜杀机[国语音轨/繁英字幕].Sweet.Alibis.2014.BluRay.1080p.DTS-HD.MA.5.1.x265.10bit-ALT 5.73GB』来源于互联网机器人自动抓取,非本站原创。 浮游电影网不对本文拥有版权,如有侵犯,请联系邮箱:fuyouu#yandex.com[#换成@]投诉。我们会在15个工作日内删除。 但烦请转载时请标明出处:“本文转载于『浮游电影网』,原文地址:https://www.fuyouu.com/21669.html

评论吧骚年!

发表你的见解   

昵称*

E-mail*(建议输入,以便收到博主回复的提示邮件)

验证码*

您可以使用eMule或eMule Mod(Windows)、aMule(Win、Linux、Mac)等软件下载eD2k链接。。
eMule收藏集(.emulecollection)文件是您选中的所有链接的列表文件。eMule可以直接下载它们。
按住SHIFT键选择可以选中多个选择框。
可用文件名和大小选择器来选择文件。
文件名选择器帮您根据文件名称或后缀来选择文件。不分大小写。
符号使用:
和:空格( )、+
不包含:-
或:|
转义:一对英文引号("");
匹配开头:^
匹配结尾:$
例如:
选中所有名称中包含有“eMule”或“0.49c”字眼,但不包含有“exe”字眼的:emule|0.49c -exe
选中所有名称的开头是“eMule”,结尾是“0.49c”的:^emule 0.49c$
选中所有名称中带有“eMule 0.49c”的(必须是“eMule 0.49c”,中间没有别的字符,不能是“eMule fake 0.49c”),需要转义:"emule 0.49c"
大小选择器帮您根据文件大小选择文件。