当前位置: 首页 >> 国产电影 >> 洗冤录之西夏铁棺[国语音轨/中英字幕].Redress.Grievanges.2022.WEB-DL.4K.H265.AAC-HOMEWEB 2.02GB >> 正文

洗冤录之西夏铁棺[国语音轨/中英字幕].Redress.Grievanges.2022.WEB-DL.4K.H265.AAC-HOMEWEB 2.02GB

2022年04月24日 22:28:00     电影发布:来源于网络     电影分类:国产电影     评论(0)    

洗冤录之西夏铁棺[国语音轨/中英字幕].Redress.Grievanges.2022.WEB DL.4K.H265.AAC HOMEWEB 2.02GB  国产电影  第1张

◎译 名 洗冤录之西夏铁棺 / 洗冤集录之上穷碧落

◎年 代 2022

◎产 地 中国大陆

◎类 别 悬疑 / 犯罪 / 古装

◎语 言 汉语普通话

◎上映日期 2022-03-25(中国大陆)

◎IMDb链接 https://www.imdb.com/title//

◎豆瓣链接 https://movie.douban.com/subject/35295692/

◎演 员 徐少强 Norman Chu (id:1048469)

◎简 介

西夏王有一宝衣“碧落”,相传“碧落”可以助凡人飞升成仙,宋帝大寿,西夏以贺礼敬献,承运使梁王心起贪念,穿起宝衣,却不想在众目睽睽之下被宝衣勾去魂魄,死于铁棺之中。宋帝大怒,命宋慈查询真相,到底是西夏有谋反之心,还是当真宝衣勾魂,宋慈查案过程中,却接连有人被宝衣勾魂而死。案件处处透露着曲折离奇,宝衣“碧落”到底是可助人得道的仙衣还是勾人魂魄的邪物,亦或是人性堪比鬼怪?宋慈面临着险象环生的案情,多方势力的施压,是否破开迷雾,得见青天?且看宋慈如何点破谜题,还事件清白。

  1. ##### MediaInfo ######

  2. General

  3. Unique ID : 231515997220112853272594777065625427364 (0xAE2C5BF23E460097DD444FEEBA871DA4)

  4. Complete name : Redress.Grievanges.2022.WEB-DL.4K.H265.AAC-HOMEWEB.mkv

  5. Format : Matroska

  6. Format version : Version 4

  7. File size : 2.02 GiB

  8. Duration : 1 h 13 min

  9. Overall bit rate : 3 902 kb/s

  10. Encoded date : UTC 2022-04-23 17:33:51

  11. Writing application : mkvmerge v63.0.0 ('Everything') 64-bit

  12. Writing library : libebml v1.4.2 + libmatroska v1.6.4

  13. Video

  14. ID : 1

  15. Format : HEVC

  16. Format/Info : High Efficiency Video Coding

  17. Format profile : [email protected]@Main

  18. Codec ID : V_MPEGH/ISO/HEVC

  19. Duration : 1 h 13 min

  20. Bit rate : 3 708 kb/s

  21. Width : 3 840 pixels

  22. Height : 1 624 pixels

  23. Display aspect ratio : 2.35:1

  24. Frame rate mode : Constant

  25. Frame rate : 25.000 FPS

  26. Color space : YUV

  27. Chroma subsampling : 4:2:0

  28. Bit depth : 8 bits

  29. Bits/(Pixel*Frame) : 0.024

  30. Stream size : 1.92 GiB (95%)

  31. Default : Yes

  32. Forced : No

  33. Audio

  34. ID : 2

  35. Format : AAC LC

  36. Format/Info : Advanced Audio Codec Low Complexity

  37. Codec ID : A_AAC-2

  38. Duration : 1 h 13 min

  39. Bit rate : 192 kb/s

  40. Channel(s) : 2 channels

  41. Channel layout : L R

  42. Sampling rate : 44.1 kHz

  43. Frame rate : 43.066 FPS (1024 SPF)

  44. Compression mode : Lossy

  45. Stream size : 100 MiB (5%)

  46. Title : 普通话

  47. Language : Chinese

  48. Default : Yes

  49. Forced : No

  50. Text #1

  51. ID : 3

  52. Format : UTF-8

  53. Codec ID : S_TEXT/UTF8

  54. Codec ID/Info : UTF-8 Plain Text

  55. Duration : 1 h 12 min

  56. Bit rate : 61 b/s

  57. Count of elements : 1344

  58. Stream size : 32.7 KiB (0%)

  59. Title : 简体中文

  60. Language : Chinese

  61. Default : Yes

  62. Forced : No

  63. Text #2

  64. ID : 4

  65. Format : UTF-8

  66. Codec ID : S_TEXT/UTF8

  67. Codec ID/Info : UTF-8 Plain Text

  68. Duration : 1 h 12 min

  69. Bit rate : 61 b/s

  70. Count of elements : 1344

  71. Stream size : 32.7 KiB (0%)

  72. Title : 繁体中文

  73. Language : Chinese

  74. Default : No

  75. Forced : No

  76. Text #3

  77. ID : 5

  78. Format : UTF-8

  79. Codec ID : S_TEXT/UTF8

  80. Codec ID/Info : UTF-8 Plain Text

  81. Duration : 1 h 12 min

  82. Bit rate : 99 b/s

  83. Count of elements : 1343

  84. Stream size : 53.2 KiB (0%)

  85. Title : 阿拉伯语

  86. Language : Arabic

  87. Default : No

  88. Forced : No

  89. Text #4

  90. ID : 6

  91. Format : UTF-8

  92. Codec ID : S_TEXT/UTF8

  93. Codec ID/Info : UTF-8 Plain Text

  94. Duration : 1 h 12 min

  95. Bit rate : 87 b/s

  96. Count of elements : 1344

  97. Stream size : 46.5 KiB (0%)

  98. Title : 韩语

  99. Language : Korean

  100. Default : No

  101. Forced : No

  102. Text #5

  103. ID : 7

  104. Format : UTF-8

  105. Codec ID : S_TEXT/UTF8

  106. Codec ID/Info : UTF-8 Plain Text

  107. Duration : 1 h 13 min

  108. Bit rate : 89 b/s

  109. Count of elements : 1432

  110. Stream size : 47.8 KiB (0%)

  111. Title : 马来语

  112. Language : Malay

  113. Default : No

  114. Forced : No

  115. Text #6

  116. ID : 8

  117. Format : UTF-8

  118. Codec ID : S_TEXT/UTF8

  119. Codec ID/Info : UTF-8 Plain Text

  120. Duration : 1 h 13 min

  121. Bit rate : 213 b/s

  122. Count of elements : 1432

  123. Stream size : 115 KiB (0%)

  124. Title : 泰语

  125. Language : Thai

  126. Default : No

  127. Forced : No

  128. Text #7

  129. ID : 9

  130. Format : UTF-8

  131. Codec ID : S_TEXT/UTF8

  132. Codec ID/Info : UTF-8 Plain Text

  133. Duration : 1 h 12 min

  134. Bit rate : 78 b/s

  135. Count of elements : 1344

  136. Stream size : 42.0 KiB (0%)

  137. Title : 西班牙语

  138. Language : Spanish

  139. Default : No

  140. Forced : No

  141. Text #8

  142. ID : 10

  143. Format : UTF-8

  144. Codec ID : S_TEXT/UTF8

  145. Codec ID/Info : UTF-8 Plain Text

  146. Duration : 1 h 12 min

  147. Bit rate : 80 b/s

  148. Count of elements : 1344

  149. Stream size : 43.0 KiB (0%)

  150. Title : 印尼语

  151. Language : Indonesian

  152. Default : No

  153. Forced : No

  154. Text #9

  155. ID : 11

  156. Format : UTF-8

  157. Codec ID : S_TEXT/UTF8

  158. Codec ID/Info : UTF-8 Plain Text

  159. Duration : 1 h 13 min

  160. Bit rate : 80 b/s

  161. Count of elements : 1432

  162. Stream size : 43.0 KiB (0%)

  163. Title : 英语

  164. Language : English

  165. Default : No

  166. Forced : No

  167. Text #10

  168. ID : 12

  169. Format : UTF-8

  170. Codec ID : S_TEXT/UTF8

  171. Codec ID/Info : UTF-8 Plain Text

  172. Duration : 1 h 13 min

  173. Bit rate : 114 b/s

  174. Count of elements : 1432

  175. Stream size : 61.4 KiB (0%)

  176. Title : 越南语

  177. Language : Vietnamese

  178. Default : No

  179. Forced : No


复制代码



文件下载


除非特别注明,本文『洗冤录之西夏铁棺[国语音轨/中英字幕].Redress.Grievanges.2022.WEB-DL.4K.H265.AAC-HOMEWEB 2.02GB』来源于互联网机器人自动抓取,非本站原创。 浮游电影网不对本文拥有版权,如有侵犯,请联系邮箱:fuyouu#yandex.com[#换成@]投诉。我们会在15个工作日内删除。 但烦请转载时请标明出处:“本文转载于『浮游电影网』,原文地址:https://www.fuyouu.com/21668.html

评论吧骚年!

发表你的见解   

昵称*

E-mail*(建议输入,以便收到博主回复的提示邮件)

验证码*

您可以使用eMule或eMule Mod(Windows)、aMule(Win、Linux、Mac)等软件下载eD2k链接。。
eMule收藏集(.emulecollection)文件是您选中的所有链接的列表文件。eMule可以直接下载它们。
按住SHIFT键选择可以选中多个选择框。
可用文件名和大小选择器来选择文件。
文件名选择器帮您根据文件名称或后缀来选择文件。不分大小写。
符号使用:
和:空格( )、+
不包含:-
或:|
转义:一对英文引号("");
匹配开头:^
匹配结尾:$
例如:
选中所有名称中包含有“eMule”或“0.49c”字眼,但不包含有“exe”字眼的:emule|0.49c -exe
选中所有名称的开头是“eMule”,结尾是“0.49c”的:^emule 0.49c$
选中所有名称中带有“eMule 0.49c”的(必须是“eMule 0.49c”,中间没有别的字符,不能是“eMule fake 0.49c”),需要转义:"emule 0.49c"
大小选择器帮您根据文件大小选择文件。