当前位置: 首页 >> 欧美电影 >> 爱乐之城[简繁英字幕].La.La.Land.2016.UHD.BluRay.2160p.TrueHD.Atmos.7.1.x265.10bit.HDR-ALT 19.77GB >> 正文

爱乐之城[简繁英字幕].La.La.Land.2016.UHD.BluRay.2160p.TrueHD.Atmos.7.1.x265.10bit.HDR-ALT 19.77GB

2022年04月24日 22:23:19     电影发布:来源于网络     电影分类:欧美电影     评论(0)    

p2565101499.jpg

◎译 名 爱乐之城 / 星声梦里人(港) / 乐来越爱你(台) / 爵士情缘 / 啦啦之地

◎片 名 La La Land

◎年 代 2016

◎产 地 美国

◎类 别 剧情 / 爱情 / 歌舞

◎语 言 英语

◎上映日期 2017-02-14(中国大陆) / 2016-08-31(威尼斯电影节) / 2016-12-25(美国)

◎IMDb链接 https://www.imdb.com/title/tt3783958/

◎豆瓣评分 8.4/10 (776725人评价)

◎豆瓣链接 https://movie.douban.com/subject/25934014/

◎片 长 128分钟

◎导 演 达米恩·查泽雷 Damien Chazelle (id:1014996)

◎编 剧 达米恩·查泽雷 Damien Chazelle (id:1014996)

◎演 员 瑞恩·高斯林 Ryan Gosling (id:1012531)

艾玛·斯通 Emma Stone (id:1040506)

约翰·传奇 John Legend (id:1014178)

罗丝玛丽·德薇特 Rosemarie DeWitt (id:1040580)

芬·维特洛克 Finn Wittrock (id:1315253)

杰西卡·罗德 Jessica Rothe (id:1325899)

水野索诺娅 Sonoya Mizuno (id:1347723)

考莉·埃尔南德斯 Callie Hernandez (id:1339675)

J·K·西蒙斯 J.K. Simmons (id:1147911)

汤姆·艾弗瑞特·斯科特 Tom Everett Scott (id:1049663)

米根·费伊 Meagen Fay (id:1320506)

达蒙·冈普顿 Damon Gupton (id:1346113)

贾森·福克斯 Jason Fuchs (id:1032466)

乔什·平茨 Josh Pence (id:1252378)

艾米·科恩 Amiée Conn (id:1237561)

特里·沃尔特斯 Terry Walters (id:1344851)

汤姆·谢尔顿 Thom Shelton (id:1365679)

信达·亚当斯 Cinda Adams (id:1328316)

克劳丁·克劳迪奥 Claudine Claudio (id:1365680)

D·A·瓦拉赫 D.A. Wallach (id:1365681)

特雷弗·里斯奥尔 Trevor Lissauer (id:1120945)

奥莉维亚·汉密尔顿 Olivia Hamilton (id:1368728)

安娜·查泽雷 Anna Chazelle (id:1368729)

马里乌斯·代·弗里斯 Marius De Vries (id:1276426)

妮科尔·库隆 Nicole Coulon (id:1368730)

迈尔斯·安德森 Miles Anderson (id:1027989)

约翰·辛德曼 John Hindman (id:1308171)

瓦拉里·雷·米勒 Valarie Rae Miller (id:1123746)

基夫·范登·霍伊维尔 Kiff Vanden Heuvel (id:1150551)

佐伊·霍尔 Zo? Hall (id:1119424)

登普西·帕皮恩 Dempsey Pappion (id:1127761)

辛德拉·车 Cindera Che (id:1348657)

Corrin Evans Corrin Evans (id:1451307)

苏珊妮·拉切塞斯 Suzanne LaChasse (id:1422136)

妮拉·伊丽莎白·沃特金斯 Nilla Elizabeth Watkins (id:1412713)

妮可·沃尔夫 Nicole Wolf (id:1401852)

弗雷德里克·基夫 Frederick Keeve (id:1382901)

Kc·莫尼 Kc Monnie (id:1385539)

朱莉·施密德 Julie Schmid (id:1379179)

赫米基·马德拉 Hemky Madera (id:1120351)

尼克·巴加 Nick Baga (id:1364012)

尼克·德拉戈 Nick Drago (id:1364011)

约旦·霍洛维茨 Jordan Horowitz (id:1369609)

程武 Wu Cheng (id:1406349)

弗雷德·伯格 Fred Berger (id:1215516)

马克·普拉特 Marc Platt (id:1294606)

贾斯汀·赫维兹 Justin Hurwitz (id:1365264)

莱纳斯·桑德格伦 Linus Sandgren (id:1038861)

汤姆·克罗斯 Tom Cross (id:1344962)

玛丽·特里西亚·伍德 Mary Tricia Wood (id:1165846)

德博拉·阿奎拉 Deborah Aquila (id:1277347)

奥斯丁·格尔 Austin Gorg (id:1368727)

大卫·维斯克 David Wasco (id:1300471)

玛丽·索弗瑞斯 Mary Zophres (id:1000969)

史蒂文·莫罗 Steven Morrow (id:1369618)

◎简 介

米娅(艾玛·斯通 Emma Stone 饰)渴望成为一名演员,但至今她仍旧只是片场咖啡厅里的一名平凡的咖啡师,尽管不停的参加着大大小小的试镜,但米娅收获的只有失败。某日,在一场派对之中,米娅邂逅了名为塞巴斯汀(瑞恩·高斯林 Ryan Gosling 饰)的男子,起初两人之间产生了小小的矛盾,但很快,米娅便被塞巴斯汀身上闪耀的才华以及他对爵士乐的纯粹追求所吸引,最终两人走到了一起。

在塞巴斯汀的鼓励下,米娅辞掉了咖啡厅的工作,专心为自己写起了剧本,与此同时,塞巴斯汀为了获得一份稳定的收入,加入了一支流行爵士乐队,开始演奏自己并不喜欢的现代爵士乐,没想到一炮而红。随着时间的推移,努力追求梦想的两人,彼此之间的距离却越来越远,在理想和感情之间,他们必须做出选择。

◎获奖情况 (共114项)

第89届奥斯卡金像奖 (2017)

最佳影片(提名)

最佳导演

└──达米恩·查泽雷 (id:1014996)

最佳男主角(提名)

└──瑞恩·高斯林 (id:1012531)

最佳女主角

└──艾玛·斯通 (id:1040506)

最佳原创剧本(提名)

└──达米恩·查泽雷 (id:1014996)

最佳摄影

└──莱纳斯·桑德格伦 (id:1038861)

最佳剪辑(提名)

└──汤姆·克罗斯 (id:1344962)

最佳混音(提名)

最佳音效剪辑(提名)

最佳艺术指导

最佳服装设计(提名)

└──玛丽·索弗瑞斯 (id:1000969)

最佳原创配乐

└──贾斯汀·赫维兹 (id:1365264)

最佳原创歌曲

最佳原创歌曲(提名)

第73届威尼斯电影节 (2016)

主竞赛单元 金狮奖 (提名)

└──达米恩·查泽雷 (id:1014996)

沃尔皮杯 最佳女演员

└──艾玛·斯通 (id:1040506)

第74届金球奖 (2017)

电影类 最佳音乐/喜剧

电影类 最佳导演

└──达米恩·查泽雷 (id:1014996)

电影类 音乐/喜剧片最佳男主角

└──瑞恩·高斯林 (id:1012531)

电影类 音乐/喜剧片最佳女主角

└──艾玛·斯通 (id:1040506)

电影类 最佳编剧

└──达米恩·查泽雷 (id:1014996)

电影类 最佳原创配乐

└──贾斯汀·赫维兹 (id:1365264)

电影类 最佳原创歌曲

第70届英国电影学院奖 (2017)

电影奖 最佳影片

电影奖 最佳导演

└──达米恩·查泽雷 (id:1014996)

电影奖 最佳男主角(提名)

└──瑞恩·高斯林 (id:1012531)

电影奖 最佳女主角

└──艾玛·斯通 (id:1040506)

电影奖 最佳原创剧本(提名)

└──达米恩·查泽雷 (id:1014996)

电影奖 最佳摄影

└──莱纳斯·桑德格伦 (id:1038861)

电影奖 最佳剪辑(提名)

└──汤姆·克罗斯 (id:1344962)

电影奖 最佳服装设计(提名)

└──玛丽·索弗瑞斯 (id:1000969)

电影奖 最佳艺术指导(提名)

电影奖 最佳原创音乐

└──贾斯汀·赫维兹 (id:1365264)

电影奖 最佳音效(提名)

第41届日本电影学院奖 (2018)

最佳外语片

第43届法国凯撒电影奖 (2018)

最佳外语片(提名)

第41届多伦多国际电影节 (2016)

观众选择奖

第26届MTV电影奖 (2017)

MTV电影奖 最佳吻戏(提名)

第69届美国导演工会奖 (2017)

最佳电影导演

└──达米恩·查泽雷 (id:1014996)

第23届美国演员工会奖 (2017)

电影奖 最佳男主角(提名)

└──瑞恩·高斯林 (id:1012531)

电影奖 最佳女主角

└──艾玛·斯通 (id:1040506)

第69届美国编剧工会奖 (2017)

电影奖 最佳原创剧本(提名)

第28届美国制片人工会奖 (2017)

最佳电影制片人奖

第31届美国摄影协会奖 (2017)

电影长片最佳摄影(提名)

└──莱纳斯·桑德格伦 (id:1038861)

第67届美国剪辑工会奖 (2017)

音乐/喜剧片最佳剪辑

第21届美国艺术指导工会奖 (2017)

电影奖 最佳当代电影艺术指导

第19届美国服装设计工会奖 (2017)

现代电影最佳服装设计

第53届美国声音效果协会奖 (2017)

真人电影最佳音效

第82届纽约影评人协会奖 (2016)

最佳影片

第88届美国国家评论协会奖 (2016)

年度佳片(提名)

第22届美国评论家选择电影奖 (2017)

最佳影片

最佳导演

└──达米恩·查泽雷 (id:1014996)

最佳男主角(提名)

└──瑞恩·高斯林 (id:1012531)

最佳女主角(提名)

└──艾玛·斯通 (id:1040506)

最佳原创剧本

└──达米恩·查泽雷 (id:1014996)

最佳摄影

最佳剪辑

最佳配乐

最佳歌曲

最佳美术指导

最佳服装设计(提名)

最佳音效(提名)

第17届美国电影学会奖 (2016)

年度佳片

第21届金卫星奖 (2017)

电影部门 最佳剧情片

电影部门 最佳导演(提名)

└──达米恩·查泽雷 (id:1014996)

电影部门 剧情片最佳男主角(提名)

└──瑞恩·高斯林 (id:1012531)

电影部门 剧情片最佳女主角(提名)

└──艾玛·斯通 (id:1040506)

电影部门 最佳原创剧本(提名)

└──达米恩·查泽雷 (id:1014996)

电影部门 最佳原创配乐

└──贾斯汀·赫维兹 (id:1365264)

电影部门 最佳原创歌曲

电影部门 最佳原创歌曲(提名)

电影部门 最佳摄影(提名)

└──莱纳斯·桑德格伦 (id:1038861)

电影部门 最佳剪辑(提名)

└──汤姆·克罗斯 (id:1344962)

电影部门 最佳音效(提名)

电影部门 最佳美术指导

└──大卫·维斯克 (id:1300471)

电影部门 最佳服装设计(提名)

└──玛丽·索弗瑞斯 (id:1000969)

第20届好莱坞电影奖 (2016)

年度摄影奖

└──莱纳斯·桑德格伦 (id:1038861)

第15届华盛顿影评人协会奖 (2016)

最佳影片

最佳导演

└──达米恩·查泽雷 (id:1014996)

最佳男主角(提名)

└──瑞恩·高斯林 (id:1012531)

最佳女主角(提名)

└──艾玛·斯通 (id:1040506)

最佳原创剧本

└──达米恩·查泽雷 (id:1014996)

最佳摄影

最佳剪辑

└──汤姆·克罗斯 (id:1344962)

最佳原创配乐

最佳艺术指导

第37届伦敦影评人协会奖 (2017)

年度电影

年度导演(提名)

└──达米恩·查泽雷 (id:1014996)

年度编剧(提名)

└──达米恩·查泽雷 (id:1014996)

年度女主角(提名)

└──艾玛·斯通 (id:1040506)

第37届波士顿影评人协会奖 (2016)

最佳影片

最佳导演

└──达米恩·查泽雷 (id:1014996)

最佳剪辑

└──汤姆·克罗斯 (id:1344962)

第42届洛杉矶影评人协会奖 (2016)

最佳配乐

└──贾斯汀·赫维兹 (id:1365264)

第29届芝加哥影评人协会奖 (2016)

最佳影片(提名)

最佳导演(提名)

└──达米恩·查泽雷 (id:1014996)

最佳女主角(提名)

└──艾玛·斯通 (id:1040506)

最佳摄影

└──莱纳斯·桑德格伦 (id:1038861)

最佳剪辑

最佳原创配乐(提名)

└──贾斯汀·赫维兹 (id:1365264)

最佳艺术指导(提名)

第20届美国在线影评人协会奖 (2017)

最佳影片(提名)

最佳导演(提名)

└──达米恩·查泽雷 (id:1014996)

最佳男主角(提名)

└──瑞恩·高斯林 (id:1012531)

最佳女主角(提名)

└──艾玛·斯通 (id:1040506)

最佳原创剧本(提名)

└──达米恩·查泽雷 (id:1014996)

最佳剪辑

└──汤姆·克罗斯 (id:1344962)

最佳摄影

└──莱纳斯·桑德格伦 (id:1038861)

第4届豆瓣电影年度榜单 (2017)

评分最高的外语电影(提名)

最受关注的院线电影(提名)

评分最高的爱情片(提名)

年度电影原声

2月最受关注电影

第3届豆瓣电影年度榜单 (2016)

2016-2017北美颁奖季热门佳片

  1. ##### MediaInfo ######

  2. General

  3. Unique ID : 41504618713971905407475400798316544835 (0x1F397FB16ED322EE5BF93E5354344343)

  4. Complete name : La.La.Land.2016.UHD.BluRay.2160p.TrueHD.Atmos.7.1.x265.10bit.HDR-BeiTai.mkv

  5. Format : Matroska

  6. Format version : Version 4

  7. File size : 19.8 GiB

  8. Duration : 2 h 8 min

  9. Overall bit rate mode : Variable

  10. Overall bit rate : 22.1 Mb/s

  11. Encoded date : UTC 2022-04-23 10:24:33

  12. Writing application : mkvmerge v49.0.0 ('Sick Of Losing Soulmates') 64-bit

  13. Writing library : libebml v1.4.0 + libmatroska v1.6.1

  14. Video

  15. ID : 1

  16. Format : HEVC

  17. Format/Info : High Efficiency Video Coding

  18. Format profile : Main [email protected]@High

  19. HDR format : SMPTE ST 2086, HDR10 compatible

  20. Codec ID : V_MPEGH/ISO/HEVC

  21. Duration : 2 h 7 min

  22. Bit rate : 17.3 Mb/s

  23. Width : 3 840 pixels

  24. Height : 1 506 pixels

  25. Display aspect ratio : 2.550

  26. Frame rate mode : Constant

  27. Frame rate : 23.976 (24000/1001/53354) FPS

  28. Color space : YUV

  29. Chroma subsampling : 4:2:0 (Type 2)

  30. Bit depth : 10 bits

  31. Bits/(Pixel*Frame) : 0.125

  32. Stream size : 15.5 GiB (78%)

  33. Title : HEVC, [email protected]@High, 24/1.001 fps @ 17308 kbps

  34. Writing library : x265 3.5+36-1f2c8da77:[Windows][GCC 11.2.0][64 bit] 10bit

  35. Encoding settings : cpuid=533541111039 / frame-threads=4 / numa-pools=20 / wpp / pmode / pme / no-psnr / no-ssim / log-level=2 / input-csp=1 / input-res=3840x1506 / interlace=0 / total-frames=183864 / level-idc=51 / high-tier=1 / uhd-bd=0 / ref=4 / no-allow-non-conformance / repeat-headers / annexb / no-aud / no-eob / no-eos / hrd / info / hash=0 / no-temporal-layers / no-open-gop / min-keyint=24 / keyint=240 / gop-lookahead=0 / bframes=8 / b-adapt=2 / b-pyramid / bframe-bias=0 / rc-lookahead=25 / lookahead-slices=0 / NTMzNTQ=uuDQuD2mJt9fsCf / scenecut=40 / no-hist-scenecut / radl=0 / no-splice / no-intra-refresh / ctu=64 / min-cu-size=8 / no-rect / no-amp / max-tu-size=32 / tu-inter-depth=3 / tu-intra-depth=3 / limit-tu=4 / rdoq-level=2 / dynamic-rd=0.00 / no-ssim-rd / signhide / no-tskip / nr-intra=0 / nr-inter=0 / no-constrained-intra / no-strong-intra-smoothing / max-merge=4 / limit-refs=1 / limit-modes / me=3 / subme=4 / merange=57 / temporal-mvp / no-frame-dup / no-hme / weightp / weightb / no-analyze-src-pics / deblock=-3:-3 / no-sao / no-sao-non-deblock / rd=6 / selective-sao=0 / no-early-skip / rskip / no-fast-intra / no-tskip-fast / no-cu-lossless / b-intra / no-splitrd-skip / rdpenalty=0 / psy-rd=2.00 / psy-rdoq=1.00 / no-rd-refine / no-lossless / cbqpoffs=0 / crqpoffs=0 / rc=crf / crf=19.5 / qcomp=0.65 / qpstep=4 / stats-write=0 / stats-read=0 / vbv-maxrate=160000 / vbv-bufsize=160000 / vbv-init=0.9 / min-vbv-fullness=50.0 / max-vbv-fullness=80.0 / crf-max=0.0 / crf-min=0.0 / ipratio=1.30 / pbratio=1.20 / aq-mode=3 / aq-strength=0.85 / cutree / zone-count=0 / no-strict-cbr / qg-size=32 / no-rc-grain / qpmax=69 / qpmin=0 / no-const-vbv / sar=1 / overscan=0 / videoformat=5 / range=0 / colorprim=9 / transfer=16 / colormatrix=9 / chromaloc=1 / chromaloc-top=2 / chromaloc-bottom=2 / display-window=0 / master-display=G(13250,34500)B(7500,3000)R(34000,16000)WP(15635,16450)L(10000000,0) / cll=0,0 / min-luma=0 / max-luma=1023 / log2-max-poc-lsb=8 / vui-timing-info / vui-hrd-info / slices=1 / no-opt-qp-pps / no-opt-ref-list-length-pps / no-multi-pass-opt-rps / scenecut-bias=0.05 / hist-threshold=0.03 / no-opt-cu-delta-qp / no-aq-motion / hdr10 / hdr10-opt / no-dhdr10-opt / no-idr-recovery-sei / analysis-reuse-level=0 / analysis-save-reuse-level=0 / analysis-load-reuse-level=0 / scale-factor=0 / refine-intra=0 / refine-inter=0 / refine-mv=1 / refine-ctu-distortion=0 / no-limit-sao / ctu-info=0 / no-lowpass-dct / refine-analysis-type=0 / copy-pic=1 / max-ausize-factor=1.0 / no-dynamic-refine / no-single-sei / no-hevc-aq / no-svt / no-field / qp-adaptation-range=1.00 / scenecut-aware-qp=0conformance-window-offsets / right=0 / bottom=0 / NTMzNTQ= / decoder-max-rate=0 / no-vbv-live-multi-pass

  36. Language : English

  37. Default : Yes

  38. Forced : No

  39. Color range : Limited

  40. Color primaries : BT.2020

  41. Transfer characteristics : PQ

  42. Matrix coefficients : BT.2020 non-constant

  43. Mastering display color primaries : Display P3

  44. Mastering display luminance : min: 0.0000 cd/m2, max: 1000 cd/m2

  45. Audio #1

  46. ID : 2

  47. Format : MLP FBA 16-ch

  48. Format/Info : Meridian Lossless Packing FBA with 16-channel presentation

  49. Commercial name : Dolby TrueHD with Dolby Atmos

  50. Codec ID : A_TRUEHD

  51. Duration : 2 h 8 min

  52. Bit rate mode : Variable

  53. Bit rate : 3 725 kb/s

  54. Maximum bit rate : 7 209 kb/s

  55. Channel(s) : 8 channels

  56. Channel layout : L R C LFE Ls Rs Lb Rb

  57. Sampling rate : 48.0 kHz

  58. Frame rate : 1 200.000 FPS (40 SPF)

  59. Compression mode : Lossless

  60. Stream size : 3.33 GiB (17%)

  61. Title : English Dolby TrueHD 7.1 (Atmos) @ 4365 kbps

  62. Language : English

  63. Default : Yes

  64. Forced : No

  65. Number of dynamic objects : 13

  66. Bed channel count : 1 channel

  67. Bed channel configuration : LFE

  68. Audio #2

  69. ID : 3

  70. Format : AC-3

  71. Format/Info : Audio Coding 3

  72. Commercial name : Dolby Digital

  73. Codec ID : A_AC3

  74. Duration : 2 h 8 min

  75. Bit rate mode : Constant

  76. Bit rate : 640 kb/s

  77. Channel(s) : 6 channels

  78. Channel layout : L R C LFE Ls Rs

  79. Sampling rate : 48.0 kHz

  80. Frame rate : 31.250 FPS (1536 SPF)

  81. Compression mode : Lossy

  82. Stream size : 587 MiB (3%)

  83. Title : English AC3 5.1-EX @ 640 kbps

  84. Language : English

  85. Service kind : Complete Main

  86. Default : No

  87. Forced : No

  88. Audio #3

  89. ID : 4

  90. Format : AC-3

  91. Format/Info : Audio Coding 3

  92. Commercial name : Dolby Digital

  93. Codec ID : A_AC3

  94. Duration : 2 h 7 min

  95. Bit rate mode : Constant

  96. Bit rate : 224 kb/s

  97. Channel(s) : 2 channels

  98. Channel layout : L R

  99. Sampling rate : 48.0 kHz

  100. Frame rate : 31.250 FPS (1536 SPF)

  101. Compression mode : Lossy

  102. Stream size : 205 MiB (1%)

  103. Title : English Dolby Digital Audio 2.0 @ 224 kbps Commentary

  104. Language : English

  105. Service kind : Commentary

  106. Default : No

  107. Forced : No

  108. Text #1

  109. ID : 5

  110. Format : PGS

  111. Codec ID : S_HDMV/PGS

  112. Codec ID/Info : Picture based subtitle format used on BDs/HD-DVDs

  113. Duration : 1 h 59 min

  114. Bit rate : 24.6 kb/s

  115. Count of elements : 1867

  116. Stream size : 21.1 MiB (0%)

  117. Title : Cht/SUP 原盘繁体

  118. Language : Chinese

  119. Default : No

  120. Forced : No

  121. Text #2

  122. ID : 6

  123. Format : PGS

  124. Codec ID : S_HDMV/PGS

  125. Codec ID/Info : Picture based subtitle format used on BDs/HD-DVDs

  126. Duration : 1 h 59 min

  127. Bit rate : 24.3 kb/s

  128. Count of elements : 1867

  129. Stream size : 20.8 MiB (0%)

  130. Title : Chs/SUP 原盘简体

  131. Language : Chinese

  132. Default : Yes

  133. Forced : No

  134. Text #3

  135. ID : 7

  136. Format : PGS

  137. Codec ID : S_HDMV/PGS

  138. Codec ID/Info : Picture based subtitle format used on BDs/HD-DVDs

  139. Duration : 1 h 59 min

  140. Bit rate : 30.6 kb/s

  141. Count of elements : 2408

  142. Stream size : 26.1 MiB (0%)

  143. Title : Eng/SUP

  144. Language : English

  145. Default : No

  146. Forced : No

  147. Text #4

  148. ID : 8

  149. Format : PGS

  150. Codec ID : S_HDMV/PGS

  151. Codec ID/Info : Picture based subtitle format used on BDs/HD-DVDs

  152. Duration : 1 h 59 min

  153. Bit rate : 34.4 kb/s

  154. Count of elements : 2718

  155. Stream size : 29.5 MiB (0%)

  156. Title : Eng/SUP SDH

  157. Language : English

  158. Default : No

  159. Forced : No

  160. Text #5

  161. ID : 9

  162. Format : PGS

  163. Codec ID : S_HDMV/PGS

  164. Codec ID/Info : Picture based subtitle format used on BDs/HD-DVDs

  165. Duration : 2 h 7 min

  166. Bit rate : 56.7 kb/s

  167. Count of elements : 2610

  168. Stream size : 51.7 MiB (0%)

  169. Title : Cht/SUP 原盘导评繁体

  170. Language : Chinese

  171. Default : No

  172. Forced : No

  173. Menu

  174. 00:00:00.000 : en:第 01 章

  175. 00:07:07.927 : en:第 02 章

  176. 00:17:31.884 : en:第 03 章

  177. 00:26:06.857 : en:第 04 章

  178. 00:31:15.040 : en:第 05 章

  179. 00:39:30.076 : en:第 06 章

  180. 00:46:18.567 : en:第 07 章

  181. 00:52:12.171 : en:第 08 章

  182. 00:58:51.361 : en:第 09 章

  183. 01:05:59.873 : en:第 10 章

  184. 01:13:02.295 : en:第 11 章

  185. 01:24:17.302 : en:第 12 章

  186. 01:31:51.881 : en:第 13 章

  187. 01:41:11.983 : en:第 14 章

  188. 01:46:08.612 : en:第 15 章

  189. 01:56:19.598 : en:第 16 章


复制代码



文件下载


除非特别注明,本文『爱乐之城[简繁英字幕].La.La.Land.2016.UHD.BluRay.2160p.TrueHD.Atmos.7.1.x265.10bit.HDR-ALT 19.77GB』来源于互联网机器人自动抓取,非本站原创。 浮游电影网不对本文拥有版权,如有侵犯,请联系邮箱:fuyouu#yandex.com[#换成@]投诉。我们会在15个工作日内删除。 但烦请转载时请标明出处:“本文转载于『浮游电影网』,原文地址:https://www.fuyouu.com/21666.html

评论吧骚年!

发表你的见解   

昵称*

E-mail*(建议输入,以便收到博主回复的提示邮件)

验证码*

您可以使用eMule或eMule Mod(Windows)、aMule(Win、Linux、Mac)等软件下载eD2k链接。。
eMule收藏集(.emulecollection)文件是您选中的所有链接的列表文件。eMule可以直接下载它们。
按住SHIFT键选择可以选中多个选择框。
可用文件名和大小选择器来选择文件。
文件名选择器帮您根据文件名称或后缀来选择文件。不分大小写。
符号使用:
和:空格( )、+
不包含:-
或:|
转义:一对英文引号("");
匹配开头:^
匹配结尾:$
例如:
选中所有名称中包含有“eMule”或“0.49c”字眼,但不包含有“exe”字眼的:emule|0.49c -exe
选中所有名称的开头是“eMule”,结尾是“0.49c”的:^emule 0.49c$
选中所有名称中带有“eMule 0.49c”的(必须是“eMule 0.49c”,中间没有别的字符,不能是“eMule fake 0.49c”),需要转义:"emule 0.49c"
大小选择器帮您根据文件大小选择文件。