当前位置: 首页 >> 欧美电影 >> 双层公寓[简繁英字幕].Duplex.2003.BluRay.1080p.DTS-HD.MA5.1.x265.10bit-ALT 10.25GB >> 正文

双层公寓[简繁英字幕].Duplex.2003.BluRay.1080p.DTS-HD.MA5.1.x265.10bit-ALT 10.25GB

2022年04月24日 22:21:03     电影发布:来源于网络     电影分类:欧美电影     评论(0)    

双层公寓[简繁英字幕].Duplex.2003.BluRay.1080p.DTS HD.MA5.1.x265.10bit ALT 10.25GB  欧美电影  第1张

◎译 名 双层公寓 / 一不住二不休 / 复式2人世界

◎片 名 Duplex

◎年 代 2003

◎产 地 美国 / 德国

◎类 别 喜剧

◎语 言 英语

◎上映日期 2006-02-01(中国大陆) / 2003-09-26(美国)

◎IMDb链接 https://www.imdb.com/title/tt0266489/

◎豆瓣评分 6.7/10 (6299人评价)

◎豆瓣链接 https://movie.douban.com/subject/1307046/

◎片 长 89 分钟

◎导 演 丹尼·德维托 Danny DeVito (id:1040516)

◎演 员 本·斯蒂勒 Ben Stiller (id:1054412)

德鲁·巴里摩尔 Drew Barrymore (id:1054525)

哈维·费斯特恩 Harvey Fierstein (id:1017976)

贾斯汀·塞洛克斯 Justin Theroux (id:1025199)

玛娅·鲁道夫 Maya Rudolph (id:1025183)

库玛·帕拉纳 Kumar Pallana (id:1014276)

约翰·汉博格 John Hamburg (id:1018214)

詹姆斯·瑞马尔 James Remar (id:1013812)

安贝·瓦莱塔 Amber Valletta (id:1006969)

詹妮特·戈德斯坦恩 Jenette Goldstein (id:1004705)

蒂姆·马库兰 Tim Maculan (id:1000794)

艾琳·伊赛尔 Eileen Essell (id:1394079)

丹尼·德维托 Danny DeVito (id:1040516)

杰姬·桑德勒 Jackie Sandler (id:1027260)

杨雅慧 Michelle Krusiec (id:1027334)

崔西·沃特 Tracey Walter (id:1164847)

罗伯特·维斯多姆 Robert Wisdom (id:1160892)

拉里·维格斯 Larry Vigus (id:1149844)

雷纳·特奎拉 Leyna Nguyen (id:1135697)

埃夫吉恩尼·拉扎雷夫 Evgeniy Lazarev (id:1103513)

路易斯·基亚姆布拉沃 Louis Giambalvo (id:1096201)

威尔·布洛姆奎斯特 Will Blomquist (id:1061240)

斯薇兹·昆茨 Swoosie Kurtz (id:1055611)

克里斯蒂娜·科克 Christina Kirk (id:1041453)

华莱士·肖恩 Wallace Shawn (id:1040504)

加里·里奥托 Gary Riotto (id:1186220)

德鲁·巴里摩尔 Drew Barrymore (id:1054525)

本·斯蒂勒 Ben Stiller (id:1054412)

理查德·N·格莱德斯坦 Richard N. Gladstein (id:1018685)

南希·朱沃南 Nancy Juvonen (id:1045141)

鲍伯·韦恩斯坦 Bob Weinstein (id:1300654)

哈维·韦恩斯坦 Harvey Weinstein (id:1054304)

大卫·纽曼 David Newman (id:1133751)

琳齐·克林曼 Lynzee Klingman (id:1288719)

Greg Hayden Greg Hayden (id:1286274)

玛格莉·辛姆金 Margery Simkin (id:1297613)

哈罗德·迈克尔逊 Harold Michelson (id:1006326)

Joseph G. Aulisi Joseph G. Aulisi (id:1277584)

Elvis Jones Elvis Jones (id:1208209)

Teressa Hill Teressa Hill (id:1161004)

特里·巴利尔 Terry Baliel (id:1277776)

约翰·布雷克 John Blake (id:1278750)

巴尼·布尔曼 Barney Burman (id:1279667)

芭芭拉·奥尔维拉 Barbara Olvera (id:1293578)

Candace Neal Candace Neal (id:1292976)

Kenny Myers Kenny Myers (id:1292824)

维·尼尔 Ve Neill (id:1293011)

金伯利·格雷尼 Kimberly Greene (id:1285390)

道格拉斯·诺亚 Douglas Noe (id:1293238)

内奥米·多恩 Naomi Donne (id:1282577)

Robert C. Albertell Robert C. Albertell (id:1276926)

Daniel Lowe Daniel Lowe (id:1030480)

班诺特·吉拉尔 Benoit Girard (id:1308287)

Lori C. Miller Lori C. Miller (id:1193945)

马克·丹菲特 Mark Dornfeld (id:1282612)

James Coulter James Coulter (id:1281373)

Gilbert De La Garza Gilbert De La Garza (id:1079615)

K. Susan Thurmond K. Susan Thurmond (id:1156327)

罗伯特·罗尔斯 Robert Rowles (id:1213856)

Robert Lukacs Robert Lukacs (id:1211872)

夏伊娜·霍尔姆斯 Shaina Holmes (id:1197723)

威廉·梅萨 William Mesa (id:1291905)

汤米·陈 Tommy Tran (id:1299471)

杰罗姆·莫林 Jerome Morin (id:1307280)

林肯·库普切克 Lincoln Kupchak (id:1013029)

Jeffrey A. Okun Jeffrey A. Okun (id:1005539)

◎简 介

阿历克斯(本·斯蒂勒 Ben Stiller饰)和南希(德鲁·巴里摩尔 Drew Barrymore饰)这对夫妻搬进了一桩双层公寓。这个公寓虽然是装修古旧了些,却是一个美妙的生活居所。唯一的糟糕事情是,公寓的二楼住着一个叫康奈利太太(艾玲·伊丝儿Eileen Essel 饰)。这个年近一百岁的老人,竟然给这对夫妻带来了灾难性的麻烦。

康奈利太太总是在不合时宜的时间干扰阿历克斯和南妮的生活:在阿历克斯专心写作的时候支使他帮忙处理繁杂的家务活,在夫妻生活正到酣甜处时在他们窗边露出一个可怕的身影,用强大的电视音量来干扰他们的睡眠。更为无可奈何的是,康奈利太太毁了这对夫妻的事业,阿历克斯的书稿被她毁于一旦,南希也因为她的不间断骚扰而丢掉饭碗。夫妻两人对这个可恶的康奈利太太已经忍无可忍,他们决定,用一个神不知鬼不觉的阴谋,狠狠处置把这个无法无天的老太太,还有她...

  1. ##### MediaInfo ######

  2. General

  3. Unique ID : 307344511731892793635443235722439199288 (0xE738665BD51E481B38206036926C8A38)

  4. Complete name : Duplex.2003.BluRay.1080p.DTS-HD.MA5.1.x265.10bit-BeiTai.mkv

  5. Format : Matroska

  6. Format version : Version 4

  7. File size : 10.3 GiB

  8. Duration : 1 h 29 min

  9. Overall bit rate mode : Variable

  10. Overall bit rate : 16.4 Mb/s

  11. Encoded date : UTC 2022-04-24 01:29:22

  12. Writing application : mkvmerge v49.0.0 ('Sick Of Losing Soulmates') 64-bit

  13. Writing library : libebml v1.4.0 + libmatroska v1.6.1

  14. Video

  15. ID : 1

  16. Format : HEVC

  17. Format/Info : High Efficiency Video Coding

  18. Format profile : Main [email protected]@High

  19. Codec ID : V_MPEGH/ISO/HEVC

  20. Duration : 1 h 29 min

  21. Bit rate : 13.7 Mb/s

  22. Width : 1 920 pixels

  23. Height : 1 038 pixels

  24. Display aspect ratio : 1.85:1

  25. Frame rate mode : Constant

  26. Frame rate : 23.976 (24000/1001/53354) FPS

  27. Color space : YUV

  28. Chroma subsampling : 4:2:0

  29. Bit depth : 10 bits

  30. Bits/(Pixel*Frame) : 0.287

  31. Stream size : 8.55 GiB (83%)

  32. Title : HEVC, [email protected]@High, 24/1.001 fps @ 13480 kbps

  33. Writing library : x265 3.5+36-1f2c8da77:[Windows][GCC 11.2.0][64 bit] 10bit

  34. Encoding settings : cpuid=533541111039 / frame-threads=4 / numa-pools=16 / wpp / pmode / pme / no-psnr / no-ssim / log-level=2 / input-csp=1 / input-res=1920x1038 / interlace=0 / total-frames=130649 / level-idc=51 / high-tier=1 / uhd-bd=0 / ref=5 / no-allow-non-conformance / no-repeat-headers / annexb / no-aud / no-eob / no-eos / no-hrd / info / hash=0 / no-temporal-layers / open-gop / min-keyint=24 / keyint=240 / gop-lookahead=0 / bframes=6 / b-adapt=2 / b-pyramid / bframe-bias=0 / rc-lookahead=40 / lookahead-slices=0 / NTMzNTQ=uuDQuD2mJt9fsCf / scenecut=40 / no-hist-scenecut / radl=0 / no-splice / no-intra-refresh / ctu=32 / min-cu-size=8 / no-rect / no-amp / max-tu-size=32 / tu-inter-depth=3 / tu-intra-depth=3 / limit-tu=4 / rdoq-level=2 / dynamic-rd=0.00 / no-ssim-rd / signhide / no-tskip / nr-intra=0 / nr-inter=0 / no-constrained-intra / no-strong-intra-smoothing / max-merge=4 / limit-refs=1 / limit-modes / me=3 / subme=4 / merange=25 / temporal-mvp / no-frame-dup / no-hme / weightp / weightb / no-analyze-src-pics / deblock=-3:-3 / no-sao / no-sao-non-deblock / rd=6 / selective-sao=0 / no-early-skip / rskip / no-fast-intra / no-tskip-fast / no-cu-lossless / b-intra / no-splitrd-skip / rdpenalty=0 / psy-rd=2.00 / psy-rdoq=1.00 / no-rd-refine / no-lossless / cbqpoffs=0 / crqpoffs=0 / rc=crf / crf=18.5 / qcomp=0.65 / qpstep=4 / stats-write=0 / stats-read=0 / vbv-maxrate=80000 / vbv-bufsize=80000 / vbv-init=0.9 / min-vbv-fullness=50.0 / max-vbv-fullness=80.0 / crf-max=0.0 / crf-min=0.0 / ipratio=1.40 / pbratio=1.30 / aq-mode=2 / aq-strength=0.85 / cutree / zone-count=0 / no-strict-cbr / qg-size=32 / no-rc-grain / qpmax=69 / qpmin=0 / no-const-vbv / sar=1 / overscan=0 / videoformat=5 / range=0 / colorprim=1 / transfer=1 / colormatrix=1 / chromaloc=0 / display-window=0 / cll=0,0 / min-luma=0 / max-luma=1023 / log2-max-poc-lsb=8 / vui-timing-info / vui-hrd-info / slices=1 / no-opt-qp-pps / no-opt-ref-list-length-pps / no-multi-pass-opt-rps / scenecut-bias=0.05 / hist-threshold=0.03 / no-opt-cu-delta-qp / no-aq-motion / no-hdr10 / no-hdr10-opt / no-dhdr10-opt / no-idr-recovery-sei / analysis-reuse-level=0 / analysis-save-reuse-level=0 / analysis-load-reuse-level=0 / scale-factor=0 / refine-intra=0 / refine-inter=0 / refine-mv=1 / refine-ctu-distortion=0 / no-limit-sao / ctu-info=0 / no-lowpass-dct / refine-analysis-type=0 / copy-pic=1 / max-ausize-factor=1.0 / no-dynamic-refine / no-single-sei / no-hevc-aq / no-svt / no-field / qp-adaptation-range=1.00 / scenecut-aware-qp=0conformance-window-offsets / right=0 / bottom=0 / NTMzNTQ= / decoder-max-rate=0 / no-vbv-live-multi-pass

  35. Language : English

  36. Default : Yes

  37. Forced : No

  38. Color range : Limited

  39. Color primaries : BT.709

  40. Transfer characteristics : BT.709

  41. Matrix coefficients : BT.709

  42. Audio

  43. ID : 2

  44. Format : DTS XLL

  45. Format/Info : Digital Theater Systems

  46. Commercial name : DTS-HD Master Audio

  47. Codec ID : A_DTS

  48. Duration : 1 h 29 min

  49. Bit rate mode : Variable

  50. Bit rate : 2 654 kb/s

  51. Channel(s) : 6 channels

  52. Channel layout : C L R Ls Rs LFE

  53. Sampling rate : 48.0 kHz

  54. Frame rate : 93.750 FPS (512 SPF)

  55. Bit depth : 24 bits

  56. Compression mode : Lossless

  57. Delay relative to video : 84 ms

  58. Stream size : 1.66 GiB (16%)

  59. Title : English DTS-HD Master Audio 5.1 @ 2655 kbps

  60. Language : English

  61. Default : Yes

  62. Forced : No

  63. Text #1

  64. ID : 3

  65. Format : PGS

  66. Codec ID : S_HDMV/PGS

  67. Codec ID/Info : Picture based subtitle format used on BDs/HD-DVDs

  68. Duration : 1 h 22 min

  69. Bit rate : 28.3 kb/s

  70. Count of elements : 2780

  71. Stream size : 16.8 MiB (0%)

  72. Title : Eng/SUP

  73. Language : English

  74. Default : No

  75. Forced : No

  76. Text #2

  77. ID : 4

  78. Format : PGS

  79. Codec ID : S_HDMV/PGS

  80. Codec ID/Info : Picture based subtitle format used on BDs/HD-DVDs

  81. Duration : 1 h 22 min

  82. Bit rate : 23.4 kb/s

  83. Count of elements : 2512

  84. Stream size : 13.8 MiB (0%)

  85. Title : Chs/SUP 简体

  86. Language : Chinese

  87. Default : Yes

  88. Forced : No

  89. Text #3

  90. ID : 5

  91. Format : PGS

  92. Codec ID : S_HDMV/PGS

  93. Codec ID/Info : Picture based subtitle format used on BDs/HD-DVDs

  94. Duration : 1 h 22 min

  95. Bit rate : 24.1 kb/s

  96. Count of elements : 2512

  97. Stream size : 14.3 MiB (0%)

  98. Title : Cht/SUP 繁体

  99. Language : Chinese

  100. Default : No

  101. Forced : No

  102. Menu

  103. 00:00:00.000 : en:第 01 章

  104. 00:06:11.580 : en:第 02 章

  105. 00:12:10.688 : en:第 03 章

  106. 00:14:46.385 : en:第 04 章

  107. 00:20:26.851 : en:第 05 章

  108. 00:26:07.357 : en:第 06 章

  109. 00:33:31.801 : en:第 07 章

  110. 00:37:39.048 : en:第 08 章

  111. 00:42:28.421 : en:第 09 章

  112. 00:47:29.597 : en:第 10 章

  113. 00:52:45.954 : en:第 11 章

  114. 00:56:44.985 : en:第 12 章

  115. 01:04:00.628 : en:第 13 章

  116. 01:06:25.940 : en:第 14 章

  117. 01:12:32.848 : en:第 15 章

  118. 01:19:27.304 : en:第 16 章

  119. 01:23:10.569 : en:第 17 章


复制代码


文件下载


除非特别注明,本文『双层公寓[简繁英字幕].Duplex.2003.BluRay.1080p.DTS-HD.MA5.1.x265.10bit-ALT 10.25GB』来源于互联网机器人自动抓取,非本站原创。 浮游电影网不对本文拥有版权,如有侵犯,请联系邮箱:fuyouu#yandex.com[#换成@]投诉。我们会在15个工作日内删除。 但烦请转载时请标明出处:“本文转载于『浮游电影网』,原文地址:https://www.fuyouu.com/21665.html

评论吧骚年!

发表你的见解   

昵称*

E-mail*(建议输入,以便收到博主回复的提示邮件)

验证码*

您可以使用eMule或eMule Mod(Windows)、aMule(Win、Linux、Mac)等软件下载eD2k链接。。
eMule收藏集(.emulecollection)文件是您选中的所有链接的列表文件。eMule可以直接下载它们。
按住SHIFT键选择可以选中多个选择框。
可用文件名和大小选择器来选择文件。
文件名选择器帮您根据文件名称或后缀来选择文件。不分大小写。
符号使用:
和:空格( )、+
不包含:-
或:|
转义:一对英文引号("");
匹配开头:^
匹配结尾:$
例如:
选中所有名称中包含有“eMule”或“0.49c”字眼,但不包含有“exe”字眼的:emule|0.49c -exe
选中所有名称的开头是“eMule”,结尾是“0.49c”的:^emule 0.49c$
选中所有名称中带有“eMule 0.49c”的(必须是“eMule 0.49c”,中间没有别的字符,不能是“eMule fake 0.49c”),需要转义:"emule 0.49c"
大小选择器帮您根据文件大小选择文件。