当前位置: 首页 >> 欧美电影 >> 神秘海域[中英字幕].Uncharted.2022.2160p.WEB-DL.SDR.HEVC.DD5.1-OPT 10.03GB >> 正文

神秘海域[中英字幕].Uncharted.2022.2160p.WEB-DL.SDR.HEVC.DD5.1-OPT 10.03GB

2022年04月23日 23:11:48     电影发布:来源于网络     电影分类:欧美电影     评论(0)    

神秘海域[中英字幕].Uncharted.2022.2160p.WEB DL.SDR.HEVC.DD5.1 OPT 10.03GB  欧美电影  第1张

◎译 名 神秘海域 / 秘境探险(港 / 台) / 神秘海域:德雷克船长的宝藏 / Uncharted: Drake's Fortune

◎片 名 Uncharted

◎年 代 2022

◎产 地 美国

◎类 别 动作 / 冒险

◎语 言 英语 / 西班牙语

◎上映日期 2022-03-14(中国大陆) / 2022-02-18(美国)

◎IMDb链接 https://www.imdb.com/title/tt1464335/

◎豆瓣评分 6.3/10 (39937人评价)

◎豆瓣链接 https://movie.douban.com/subject/3822687/

◎片 长 116分钟

◎导 演 鲁本·弗雷斯彻 Ruben Fleischer (id:1274906)

◎编 剧 雷夫·贾金斯 Rafe Judkins (id:1178355)

阿特·马库姆 Art Marcum (id:1306770)

马特·霍洛维 Matt Holloway (id:1286819)

◎演 员 汤姆·赫兰德 Tom Holland (id:1325351)

马克·沃尔伯格 Mark Wahlberg (id:1035674)

索菲娅·阿里 Sophia Ali (id:1391500)

塔蒂·加布里埃 Tati Gabrielle (id:1378292)

安东尼奥·班德拉斯 Antonio Banderas (id:1022582)

史蒂芬·威丁顿 Steven Waddington (id:1319284)

乔治娅·古德曼 Georgia Goodman (id:1392804)

迪尔梅德·默塔 Diarmaid Murtagh (id:1332703)

约瑟夫·巴德拉玛 Joseph Balderrama (id:1400929)

阿拉娜·博登 Alana Boden (id:1385424)

罗伯特?马瑟 Robert Maaser (id:1414390)

埃斯金迪尔·特斯法 Eskindir Tesfay (id:1395237)

曼纽尔·德·巴拉斯 Manuel de Blas (id:1001008)

帕特丽夏·梅登 Patricia Meeden (id:1445766)

诺兰·诺斯 Nolan North (id:1134542)

吉米·哈特 Jimmy Hart (id:1303375)

皮鲁·埃斯贝克 Pilou Asb?k (id:1032805)

莎拉·佩特里克 Sarah Petrick (id:1446700)

平吉·莫里 Pingi Moli (id:1468362)

蒂尔南·琼斯 Tiernan Jones (id:1468363)

鲁迪·潘科 Rudy Pankow (id:1468364)

乔纳森·法伊拉 Jonathan Failla (id:1468365)

安东尼·托马斯 Anthony Thomas (id:1468366)

彼得·锡顿-克拉克 Peter Seaton-Clark (id:1468367)

查尔斯·罗文 Charles Roven (id:1023082)

阿维·阿拉德 Avi Arad (id:1462069)

亚历克斯·加特纳 Alex Gartner (id:1423137)

阿里·阿拉德 Ari Arad (id:1463185)

鲁本·弗雷斯彻 Ruben Fleischer (id:1274906)

阿萨德·齐齐尔巴什 Asad Qizilbash (id:1463186)

丁正勋 Chung-hoon Chung (id:1076638)

玛琳·斯图尔特 Marlene Stewart (id:1051194)

贾斯汀·理查蒙德 Justin Richmond (id:1397058)

◎简 介

足智多谋的内森·德雷克(汤姆·赫兰德 饰)和经验丰富的寻宝者维克多·苏利文(马克·沃尔伯格 饰)组成搭档,追寻费迪南·麦哲伦500年前遗失的宝藏。一开始,这似乎只是个简单的寻宝工作,但很快演变成了一场惊险刺激、横跨全球的竞赛。他们必须赶在冷酷无情的蒙卡达(安东尼奥·班德拉斯 饰)之前寻得宝藏。蒙卡达坚信他和他的家族才是宝藏的正当继承人。若内森和苏利文能破译线索,解开这世界上最古老的谜团,他们便能找到价值50亿美元的宝藏,甚至还可能找到内森失踪已久的哥哥……但首先,他们必须学会通力合作。

  1. ##### MediaInfo ######

  2. General

  3. Unique ID : 253002642948449083165307880499717874599 (0xBE56895F08B10F7850CAC54BFD4823A7)

  4. Complete name : Uncharted.2022.2160p.WEB-DL.SDR.HEVC.DD5.1-HDH.mkv

  5. Format : Matroska

  6. Format version : Version 4

  7. File size : 10.0 GiB

  8. Duration : 1 h 56 min

  9. Overall bit rate : 12.4 Mb/s

  10. Movie name : Uncharted

  11. Encoded date : UTC 2022-04-23 06:19:23

  12. Writing application : mkvmerge v61.0.0 ('So') 64-bit

  13. Writing library : libebml v1.4.2 + libmatroska v1.6.4

  14. Cover : Yes

  15. Attachments : Cover.jpg

  16. Video

  17. ID : 1

  18. Format : HEVC

  19. Format/Info : High Efficiency Video Coding

  20. Format profile : Main [email protected]@High

  21. Codec ID : V_MPEGH/ISO/HEVC

  22. Duration : 1 h 56 min

  23. Bit rate : 12.0 Mb/s

  24. Width : 3 840 pixels

  25. Height : 1 580 pixels

  26. Display aspect ratio : 2.40:1

  27. Frame rate mode : Constant

  28. Frame rate : 23.976 (23976/1000/53354) FPS

  29. Color space : YUV

  30. Chroma subsampling : 4:2:0

  31. Bit depth : 10 bits

  32. Bits/(Pixel*Frame) : 0.082

  33. Stream size : 9.71 GiB (97%)

  34. Language : English

  35. Default : Yes

  36. Forced : No

  37. Color range : Limited

  38. Color primaries : BT.709

  39. Transfer characteristics : BT.709

  40. Matrix coefficients : BT.709

  41. Audio

  42. ID : 2

  43. Format : AC-3

  44. Format/Info : Audio Coding 3

  45. Commercial name : Dolby Digital

  46. Codec ID : A_AC3

  47. Duration : 1 h 55 min

  48. Bit rate mode : Constant

  49. Bit rate : 384 kb/s

  50. Channel(s) : 6 channels

  51. Channel layout : L R C LFE Ls Rs

  52. Sampling rate : 48.0 kHz

  53. Frame rate : 31.250 FPS (1536 SPF)

  54. Compression mode : Lossy

  55. Stream size : 318 MiB (3%)

  56. Language : English

  57. Service kind : Complete Main

  58. Default : Yes

  59. Forced : No

  60. Text #1

  61. ID : 3

  62. Format : UTF-8

  63. Codec ID : S_TEXT/UTF8

  64. Codec ID/Info : UTF-8 Plain Text

  65. Duration : 4 min 20 s

  66. Bit rate : 17 b/s

  67. Count of elements : 23

  68. Stream size : 573 Bytes (0%)

  69. Title : Forced

  70. Language : English

  71. Default : Yes

  72. Forced : Yes

  73. Text #2

  74. ID : 4

  75. Format : UTF-8

  76. Codec ID : S_TEXT/UTF8

  77. Codec ID/Info : UTF-8 Plain Text

  78. Duration : 47 min 24 s

  79. Bit rate : 80 b/s

  80. Count of elements : 981

  81. Stream size : 27.9 KiB (0%)

  82. Title : SDH

  83. Language : English

  84. Default : No

  85. Forced : No

  86. Text #3

  87. ID : 5

  88. Format : UTF-8

  89. Codec ID : S_TEXT/UTF8

  90. Codec ID/Info : UTF-8 Plain Text

  91. Duration : 46 min 52 s

  92. Bit rate : 73 b/s

  93. Count of elements : 863

  94. Stream size : 25.1 KiB (0%)

  95. Language : English

  96. Default : No

  97. Forced : No

  98. Text #4

  99. ID : 6

  100. Format : UTF-8

  101. Codec ID : S_TEXT/UTF8

  102. Codec ID/Info : UTF-8 Plain Text

  103. Duration : 1 h 47 min

  104. Bit rate : 54 b/s

  105. Count of elements : 1335

  106. Stream size : 42.7 KiB (0%)

  107. Language : English

  108. Default : No

  109. Forced : No

  110. Text #5

  111. ID : 7

  112. Format : UTF-8

  113. Codec ID : S_TEXT/UTF8

  114. Codec ID/Info : UTF-8 Plain Text

  115. Duration : 1 h 48 min

  116. Bit rate : 37 b/s

  117. Count of elements : 1354

  118. Stream size : 29.7 KiB (0%)

  119. Title : 简体中字

  120. Language : Chinese

  121. Default : Yes

  122. Forced : No

  123. Text #6

  124. ID : 8

  125. Format : UTF-8

  126. Codec ID : S_TEXT/UTF8

  127. Codec ID/Info : UTF-8 Plain Text

  128. Duration : 1 h 48 min

  129. Bit rate : 37 b/s

  130. Count of elements : 1354

  131. Stream size : 29.7 KiB (0%)

  132. Title : 繁体中字

  133. Language : Chinese

  134. Default : Yes

  135. Forced : No

  136. Text #7

  137. ID : 9

  138. Format : ASS

  139. Codec ID : S_TEXT/ASS

  140. Codec ID/Info : Advanced Sub Station Alpha

  141. Duration : 1 h 48 min

  142. Bit rate : 89 b/s

  143. Count of elements : 1354

  144. Compression mode : Lossless

  145. Stream size : 71.0 KiB (0%)

  146. Title : 简体中字

  147. Language : Chinese

  148. Default : Yes

  149. Forced : No

  150. Text #8

  151. ID : 10

  152. Format : ASS

  153. Codec ID : S_TEXT/ASS

  154. Codec ID/Info : Advanced Sub Station Alpha

  155. Duration : 1 h 48 min

  156. Bit rate : 89 b/s

  157. Count of elements : 1354

  158. Compression mode : Lossless

  159. Stream size : 71.0 KiB (0%)

  160. Title : 繁体中字

  161. Language : Chinese

  162. Default : Yes

  163. Forced : No




文件下载


除非特别注明,本文『神秘海域[中英字幕].Uncharted.2022.2160p.WEB-DL.SDR.HEVC.DD5.1-OPT 10.03GB』来源于互联网机器人自动抓取,非本站原创。 浮游电影网不对本文拥有版权,如有侵犯,请联系邮箱:fuyouu#yandex.com[#换成@]投诉。我们会在15个工作日内删除。 但烦请转载时请标明出处:“本文转载于『浮游电影网』,原文地址:https://www.fuyouu.com/21660.html

评论吧骚年!

发表你的见解   

昵称*

E-mail*(建议输入,以便收到博主回复的提示邮件)

验证码*

您可以使用eMule或eMule Mod(Windows)、aMule(Win、Linux、Mac)等软件下载eD2k链接。。
eMule收藏集(.emulecollection)文件是您选中的所有链接的列表文件。eMule可以直接下载它们。
按住SHIFT键选择可以选中多个选择框。
可用文件名和大小选择器来选择文件。
文件名选择器帮您根据文件名称或后缀来选择文件。不分大小写。
符号使用:
和:空格( )、+
不包含:-
或:|
转义:一对英文引号("");
匹配开头:^
匹配结尾:$
例如:
选中所有名称中包含有“eMule”或“0.49c”字眼,但不包含有“exe”字眼的:emule|0.49c -exe
选中所有名称的开头是“eMule”,结尾是“0.49c”的:^emule 0.49c$
选中所有名称中带有“eMule 0.49c”的(必须是“eMule 0.49c”,中间没有别的字符,不能是“eMule fake 0.49c”),需要转义:"emule 0.49c"
大小选择器帮您根据文件大小选择文件。