当前位置: 首页 >> 国产电影 >> 东北告别天团[杜比视界版本][国语配音/中文字幕][email protected] 5.14GB >> 正文

东北告别天团[杜比视界版本][国语配音/中文字幕][email protected] 5.14GB

2022年04月23日 23:10:49     电影发布:来源于网络     电影分类:国产电影     评论(0)    

东北告别天团[杜比视界版本][国语配音/中文字幕].Goodbye.2022.2160p.WEB DL.H265.DV.AAC HDBWEB@BBQDDQ.COM 5.14GB  国产电影  第1张

◎译 名 东北告别天团

◎年 代 2022

◎产 地 中国大陆

◎类 别 剧情 / 喜剧

◎语 言 汉语普通话

◎上映日期 2022-04-22(中国大陆网络)

◎IMDb链接 https://www.imdb.com/title//

◎豆瓣链接 https://movie.douban.com/subject/35871767/

◎片 长 94分钟

◎导 演 崔志佳 Zhijia Cui (id:1343941)

◎编 剧 崔志佳 Zhijia Cui (id:1343941)

◎演 员 崔志佳 Zhijia Cui (id:1343941)

宋晓峰 Xiaofeng Song (id:1355097)

张琪 Qi Zhang (id:1314723)

刁彪 Biao Diao (id:1370104)

李昆鹰 Kunying Li (id:1420121)

于洋 Yang Yu (id:1338461)

孙越 Yue Sun (id:1355279)

梁龙 Long Liang (id:1364246)

赵海燕 Haiyan Zhao (id:1372584)

张子栋 Zi-Dong Zhang (id:1316364)

韩彦博 Yanbo Han (id:1362972)

衣云鹤 Yunhe Yi (id:1350228)

美娜 Meina (id:1447942)

李会长 (id:1453714)

◎简 介

范大明白(崔志佳 饰)在东北从事着白事行业,与众不同的是,范大明白愿意接纳刑满释放的人,为他们提供工作机会。这一天,一名叫做牛硬朗(宋晓峰 饰)的男人来到店里,抛出了豪华大单——三百万的葬礼,范大明白及团队惊讶不已……在办葬礼的过程中,范大明白和牛硬朗才发现,原来二人之间的渊源不止如此……

  1. ##### MediaInfo ######

  2. General

  3. Complete name : 东北告别天团.Goodbye.2022.2160p.WEB-DL.H265.DV.AAC-OurTV.mp4

  4. Format : MPEG-4

  5. Format profile : Base Media / Version 2

  6. Codec ID : mp42 (mp42/iso6/isom/msdh/dby1)

  7. File size : 5.14 GiB

  8. Duration : 1 h 35 min

  9. Overall bit rate mode : Variable

  10. Overall bit rate : 7 746 kb/s

  11. Encoded date : UTC 2022-04-22 08:23:38

  12. Tagged date : UTC 2022-04-22 08:23:38

  13. Video

  14. ID : 1

  15. Format : HEVC

  16. Format/Info : High Efficiency Video Coding

  17. Format profile : Main [email protected]@Main

  18. HDR format : Dolby Vision, Version 1.0, dvhe.05.06, BL+RPU

  19. Codec ID : dvhe

  20. Codec ID/Info : High Efficiency Video Coding with Dolby Vision

  21. Duration : 1 h 35 min

  22. Bit rate : 7 488 kb/s

  23. Width : 3 840 pixels

  24. Height : 1 600 pixels

  25. Display aspect ratio : 2.40:1

  26. Frame rate mode : Constant

  27. Frame rate : 24.000 FPS

  28. Color space : YUV

  29. Chroma subsampling : 4:2:0

  30. Bit depth : 10 bits

  31. Bits/(Pixel*Frame) : 0.051

  32. Stream size : 4.97 GiB (97%)

  33. Default : Yes

  34. Alternate group : 1

  35. Encoded date : UTC 2022-04-22 08:23:38

  36. Tagged date : UTC 2022-04-22 08:23:38

  37. Color range : Full

  38. Codec configuration box : hvcC+dvcC

  39. Audio

  40. ID : 2

  41. Format : AAC LC

  42. Format/Info : Advanced Audio Codec Low Complexity

  43. Codec ID : mp4a-40-2

  44. Duration : 1 h 35 min

  45. Bit rate mode : Variable

  46. Bit rate : 253 kb/s

  47. Maximum bit rate : 259 kb/s

  48. Channel(s) : 2 channels

  49. Channel layout : L R

  50. Sampling rate : 48.0 kHz

  51. Frame rate : 46.875 FPS (1024 SPF)

  52. Compression mode : Lossy

  53. Stream size : 172 MiB (3%)

  54. Language : Chinese

  55. Default : Yes

  56. Alternate group : 2

  57. Encoded date : UTC 2022-04-22 08:23:38

  58. Tagged date : UTC 2022-04-22 08:23:38


复制代码



文件下载


除非特别注明,本文『东北告别天团[杜比视界版本][国语配音/中文字幕][email protected] 5.14GB』来源于互联网机器人自动抓取,非本站原创。 浮游电影网不对本文拥有版权,如有侵犯,请联系邮箱:fuyouu#yandex.com[#换成@]投诉。我们会在15个工作日内删除。 但烦请转载时请标明出处:“本文转载于『浮游电影网』,原文地址:https://www.fuyouu.com/21659.html

评论吧骚年!

发表你的见解   

昵称*

E-mail*(建议输入,以便收到博主回复的提示邮件)

验证码*

您可以使用eMule或eMule Mod(Windows)、aMule(Win、Linux、Mac)等软件下载eD2k链接。。
eMule收藏集(.emulecollection)文件是您选中的所有链接的列表文件。eMule可以直接下载它们。
按住SHIFT键选择可以选中多个选择框。
可用文件名和大小选择器来选择文件。
文件名选择器帮您根据文件名称或后缀来选择文件。不分大小写。
符号使用:
和:空格( )、+
不包含:-
或:|
转义:一对英文引号("");
匹配开头:^
匹配结尾:$
例如:
选中所有名称中包含有“eMule”或“0.49c”字眼,但不包含有“exe”字眼的:emule|0.49c -exe
选中所有名称的开头是“eMule”,结尾是“0.49c”的:^emule 0.49c$
选中所有名称中带有“eMule 0.49c”的(必须是“eMule 0.49c”,中间没有别的字符,不能是“eMule fake 0.49c”),需要转义:"emule 0.49c"
大小选择器帮您根据文件大小选择文件。