当前位置: 首页 >> 欧美电影 >> 雨中曲[中文字幕].Singin.in.the.Rain.1952.2160p.BluRay.x264.8bit.SDR.DTS-HD.MA.5.1-SWTYBLZ 50.70GB >> 正文

雨中曲[中文字幕].Singin.in.the.Rain.1952.2160p.BluRay.x264.8bit.SDR.DTS-HD.MA.5.1-SWTYBLZ 50.70GB

2022年04月23日 23:02:58     电影发布:来源于网络     电影分类:欧美电影     评论(0)    

雨中曲[中文字幕].Singin.in.the.Rain.1952.2160p.BluRay.x264.8bit.SDR.DTS HD.MA.5.1 SWTYBLZ 50.70GB  欧美电影  第1张

◎译 名 雨中曲 / 万花嬉春(港 / 台) / 雨中情 / 百花嬉春

◎片 名 Singin' in the Rain

◎年 代 1952

◎产 地 美国

◎类 别 喜剧 / 爱情 / 歌舞

◎语 言 英语

◎上映日期 1952-04-11(美国)

◎IMDb链接 https://www.imdb.com/title/tt0045152/

◎豆瓣评分 9.1/10 (193057人评价)

◎豆瓣链接 https://movie.douban.com/subject/1293460/

◎片 长 103分钟

◎导 演 斯坦利·多南 Stanley Donen (id:1002835)

吉恩·凯利 Gene Kelly (id:1049621)

◎编 剧 贝蒂·康登 Betty Comden (id:1045606)

阿多夫·格林 Adolph Green (id:1037250)

◎演 员 吉恩·凯利 Gene Kelly (id:1049621)

唐纳德·奥康纳 Donald O'Connor (id:1049821)

黛比·雷诺斯 Debbie Reynolds (id:1000160)

简·哈根 Jean Hagen (id:1022873)

米勒德·米切尔 Millard Mitchell (id:1118885)

赛德·查里斯 Cyd Charisse (id:1032107)

达格拉斯·福雷 Douglas Fowley (id:1054260)

丽塔·莫雷诺 Rita Moreno (id:1036541)

道恩·艾达丝 Dawn Addams (id:1050314)

John Albright John Albright (id:1059360)

Betty Allen Betty Allen (id:1060088)

Bette Arlen Bette Arlen (id:1057975)

David Bair David Bair (id:1060811)

玛格丽特·伯特 Margaret Bert (id:1066208)

Madge Blake Madge Blake (id:1065774)

Gail Bonney Gail Bonney (id:1062802)

Chet Brandenburg Chet Brandenburg (id:1074404)

梅·克拉克 Mae Clarke (id:1025414)

Harry Cody Harry Cody (id:1067966)

Chick Collins Chick Collins (id:1067401)

Pat Conway Pat Conway (id:1068131)

Jeanne Coyne Jeanne Coyne (id:1069358)

Fred Datig Jr. Fred Datig Jr. (id:1089721)

凯·德利斯 Kay Deslys (id:1084544)

John Dodsworth John Dodsworth (id:1081070)

金·多诺万 King Donovan (id:1007204)

Phil Dunham Phil Dunham (id:1054492)

海伦·艾比罗克 Helen Eby-Rock (id:1086306)

Richard Emory Richard Emory (id:1085424)

Tommy Farrell Tommy Farrell (id:1080113)

Ernie Flatt Ernie Flatt (id:1088172)

贝丝·弗劳尔斯 Bess Flowers (id:1084601)

罗伯特·福捷 Robert Fortier (id:1042166)

Dan Foster Dan Foster (id:1088292)

Robert Foulk Robert Foulk (id:1089116)

Eric Freeman Eric Freeman (id:1079580)

凯瑟琳·弗里曼 Kathleen Freeman (id:1083132)

兰斯·富勒 Lance Fuller (id:1037369)

杰克·乔治 Jack George (id:1096987)

John George John George (id:1096107)

Inez Gorman Inez Gorman (id:1095720)

A. Cameron Grant A. Cameron Grant (id:1097917)

Beatrice Gray Beatrice Gray (id:1099270)

William Hamel William Hamel (id:1097446)

山姆·哈里斯 Sam Harris (id:1100419)

Timmy Hawkins Timmy Hawkins (id:1099682)

Jean Heremans Jean Heremans (id:1095030)

斯图尔特·霍姆斯 Stuart Holmes (id:1091930)

肯纳G.肯普 Kenner G. Kemp (id:1104065)

迈克·拉里 Mike Lally (id:1107012)

乔伊·兰辛 Joi Lansing (id:1000629)

William F. Leicester William F. Leicester (id:1120086)

Sylvia Lewis Sylvia Lewis (id:1118241)

伦尼·海顿 Lennie Hayton (id:1005283)

沃尔特·普朗凯特 Walter Plunkett (id:1019459)

道格拉斯·希勒 Douglas Shearer (id:1140891)

◎简 介

1927年,由唐·洛克伍德(吉恩·凯利 饰)和丽娜·雷蒙德(简·哈根 饰)主演的《皇家流氓》在好莱坞首映。由于丽娜刺耳的嗓音无法匹配其夺目的外貌,为了维护明星形象,宣传部只得安排唐一人讲话。首映后,由于钢琴师科斯莫·布朗(唐纳德·奥康纳 饰)的汽车爆胎,为了躲避疯狂的影迷,唐意外结识了能歌善舞的凯西·塞尔登(黛比·雷诺斯 饰),并被其深深吸引。数周后,首部有声电影《爵士歌手》爆红,唐与丽娜的新片《决斗骑士》不得不临时改变拍摄方式,而凯西也成为歌舞片演员。因预映口碑极差,科斯莫提议将《决斗骑士》改为歌舞片,由凯西为丽娜配音,凯西积极附议。与凯西吻别后,唐心花怒放,在雨中载歌载舞。科斯莫的计划能否奏效?幕后的凯西能否走到台前接受观众的掌声?

◎获奖情况 (共4项)

第25届奥斯卡金像奖 (1953)

最佳女配角(提名)

└──简·哈根 (id:1022873)

歌舞片最佳配乐(提名)

└──伦尼·海顿 (id:1005283)

第10届金球奖 (1953)

电影类 最佳音乐/喜剧片(提名)

电影类 音乐/喜剧片最佳男主角

└──唐纳德·奥康纳 (id:1049821)

  1. Video

  2. ID : 1

  3. Format : AVC

  4. Format/Info : Advanced Video Codec

  5. Format profile : [email protected]

  6. Format settings : CABAC / 5 Ref Frames

  7. Format settings, CABAC : Yes

  8. Format settings, Reference frames : 5 frames

  9. Codec ID : V_MPEG4/ISO/AVC

  10. Duration : 1 h 42 min

  11. Bit rate : 66.3 Mb/s

  12. Width : 2 960 pixels

  13. Height : 2 160 pixels

  14. Display aspect ratio : 1.370

  15. Frame rate mode : Constant

  16. Frame rate : 23.976 (24000/1001/53354) FPS

  17. Color space : YUV

  18. Chroma subsampling : 4:2:0

  19. Bit depth : 8 bits

  20. Scan type : Progressive

  21. Bits/(Pixel*Frame) : 0.432

  22. Stream size : 47.6 GiB (94%)

  23. Writing library : x264 core 157 r2935 545de2f

  24. Encoding settings : cabac=1 / ref=5 / deblock=1:-1:-1 / analyse=0x3:0x113 / me=umh / subme=10 / psy=1 / psy_rd=1.00:0.15 / mixed_ref=1 / me_range=48 / chroma_me=1 / trellis=2 / 8x8dct=1 / cqm=0 / deadzone=21,11 / fast_pskip=1 / chroma_qp_offset=-3 / threads=48 / lookahead_threads=4 / sliced_threads=0 / nr=0 / decimate=0 / interlaced=0 / NTMzNTQ= / bluray_compat=0 / constrained_intra=0 / bframes=3 / b_pyramid=2 / b_adapt=2 / b_bias=0 / direct=3 / weightb=1 / open_gop=0 / weightp=2 / keyint=250 / keyint_min=23 / NTMzNTQ=uuDQuD2mJt9fsCf / scenecut=40 / intra_refresh=0 / rc_lookahead=50 / rc=crf / mbtree=1 / crf=18.0 / qcomp=0.60 / qpmin=0 / qpmax=69 / qpstep=4 / NTMzNTQ=LmsMAP37EqsCpk / ip_ratio=1.40 / aq=1:1.00

  25. Default : Yes

  26. Forced : No


  27. Audio #1

  28. ID : 2

  29. ID in the original source medium : 4352 (0x1100)

  30. Format : DTS XLL

  31. Format/Info : Digital Theater Systems

  32. Commercial name : DTS-HD Master Audio

  33. Codec ID : A_DTS

  34. Duration : 1 h 42 min

  35. Bit rate mode : Variable

  36. Bit rate : 3 310 kb/s

  37. Channel(s) : 6 channels

  38. Channel layout : C L R Ls Rs LFE

  39. Sampling rate : 48.0 kHz

  40. Frame rate : 93.750 FPS (512 SPF)

  41. Bit depth : 24 bits

  42. Compression mode : Lossless

  43. Stream size : 2.38 GiB (5%)

  44. Title : DTS-HD MA 5.1

  45. Language : English

  46. Default : Yes

  47. Forced : No

  48. Original source medium : Blu-ray


  49. Audio #2

  50. ID : 3

  51. Format : AC-3

  52. Format/Info : Audio Coding 3

  53. Commercial name : Dolby Digital

  54. Codec ID : A_AC3

  55. Duration : 1 h 42 min

  56. Bit rate mode : Constant

  57. Bit rate : 640 kb/s

  58. Channel(s) : 6 channels

  59. Channel layout : L R C LFE Ls Rs

  60. Sampling rate : 48.0 kHz

  61. Frame rate : 31.250 FPS (1536 SPF)

  62. Compression mode : Lossy

  63. Stream size : 470 MiB (1%)

  64. Title : DD 5.1

  65. Language : English

  66. Service kind : Complete Main

  67. Default : No

  68. Forced : No


  69. Text #1

  70. ID : 4

  71. Format : UTF-8

  72. Codec ID : S_TEXT/UTF8

  73. Codec ID/Info : UTF-8 Plain Text

  74. Duration : 1 h 42 min

  75. Bit rate : 61 b/s

  76. Count of elements : 1375

  77. Stream size : 46.1 KiB (0%)

  78. Language : English

  79. Default : Yes

  80. Forced : No


  81. Text #2

  82. ID : 5

  83. Format : UTF-8

  84. Codec ID : S_TEXT/UTF8

  85. Codec ID/Info : UTF-8 Plain Text

  86. Duration : 1 h 42 min

  87. Bit rate : 63 b/s

  88. Count of elements : 1450

  89. Stream size : 47.7 KiB (0%)

  90. Title : SDH

  91. Language : English

  92. Default : No

  93. Forced : No


  94. Text #3

  95. ID : 6

  96. ID in the original source medium : 4768 (0x12A0)

  97. Format : PGS

  98. Muxing mode : zlib

  99. Codec ID : S_HDMV/PGS

  100. Codec ID/Info : Picture based subtitle format used on BDs/HD-DVDs

  101. Duration : 1 h 42 min

  102. Bit rate : 38.2 kb/s

  103. Count of elements : 2945

  104. Stream size : 27.9 MiB (0%)

  105. Language : English

  106. Default : No

  107. Forced : No

  108. Original source medium : Blu-ray


  109. Text #4

  110. ID : 7

  111. ID in the original source medium : 4769 (0x12A1)

  112. Format : PGS

  113. Muxing mode : zlib

  114. Codec ID : S_HDMV/PGS

  115. Codec ID/Info : Picture based subtitle format used on BDs/HD-DVDs

  116. Duration : 1 h 39 min

  117. Bit rate : 23.3 kb/s

  118. Count of elements : 1872

  119. Stream size : 16.5 MiB (0%)

  120. Language : French

  121. Default : No

  122. Forced : No

  123. Original source medium : Blu-ray


  124. Text #5

  125. ID : 8

  126. ID in the original source medium : 4770 (0x12A2)

  127. Format : PGS

  128. Muxing mode : zlib

  129. Codec ID : S_HDMV/PGS

  130. Codec ID/Info : Picture based subtitle format used on BDs/HD-DVDs

  131. Duration : 1 h 42 min

  132. Bit rate : 42.4 kb/s

  133. Count of elements : 2937

  134. Stream size : 31.0 MiB (0%)

  135. Language : German

  136. Default : No

  137. Forced : No

  138. Original source medium : Blu-ray


  139. Text #6

  140. ID : 9

  141. ID in the original source medium : 4771 (0x12A3)

  142. Format : PGS

  143. Muxing mode : zlib

  144. Codec ID : S_HDMV/PGS

  145. Codec ID/Info : Picture based subtitle format used on BDs/HD-DVDs

  146. Duration : 1 h 42 min

  147. Bit rate : 34.8 kb/s

  148. Count of elements : 2873

  149. Stream size : 25.5 MiB (0%)

  150. Language : Italian

  151. Default : No

  152. Forced : No

  153. Original source medium : Blu-ray


  154. Text #7

  155. ID : 10

  156. ID in the original source medium : 4772 (0x12A4)

  157. Format : PGS

  158. Muxing mode : zlib

  159. Codec ID : S_HDMV/PGS

  160. Codec ID/Info : Picture based subtitle format used on BDs/HD-DVDs

  161. Duration : 1 h 42 min

  162. Bit rate : 31.5 kb/s

  163. Count of elements : 2779

  164. Stream size : 23.0 MiB (0%)

  165. Language : Spanish

  166. Default : No

  167. Forced : No

  168. Original source medium : Blu-ray


  169. Text #8

  170. ID : 11

  171. ID in the original source medium : 4773 (0x12A5)

  172. Format : PGS

  173. Muxing mode : zlib

  174. Codec ID : S_HDMV/PGS

  175. Codec ID/Info : Picture based subtitle format used on BDs/HD-DVDs

  176. Duration : 1 h 42 min

  177. Bit rate : 31.4 kb/s

  178. Count of elements : 2571

  179. Stream size : 23.0 MiB (0%)

  180. Language : Chinese

  181. Default : No

  182. Forced : No

  183. Original source medium : Blu-ray


  184. Text #9

  185. ID : 12

  186. ID in the original source medium : 4774 (0x12A6)

  187. Format : PGS

  188. Muxing mode : zlib

  189. Codec ID : S_HDMV/PGS

  190. Codec ID/Info : Picture based subtitle format used on BDs/HD-DVDs

  191. Duration : 1 h 42 min

  192. Bit rate : 29.5 kb/s

  193. Count of elements : 2765

  194. Stream size : 21.6 MiB (0%)

  195. Language : Korean

  196. Default : No

  197. Forced : No

  198. Original source medium : Blu-ray


  199. Text #10

  200. ID : 13

  201. ID in the original source medium : 4775 (0x12A7)

  202. Format : PGS

  203. Muxing mode : zlib

  204. Codec ID : S_HDMV/PGS

  205. Codec ID/Info : Picture based subtitle format used on BDs/HD-DVDs

  206. Duration : 1 h 42 min

  207. Bit rate : 32.1 kb/s

  208. Count of elements : 2527

  209. Stream size : 23.5 MiB (0%)

  210. Language : Spanish

  211. Default : No

  212. Forced : No

  213. Original source medium : Blu-ray


  214. Text #11

  215. ID : 14

  216. ID in the original source medium : 4776 (0x12A8)

  217. Format : PGS

  218. Muxing mode : zlib

  219. Codec ID : S_HDMV/PGS

  220. Codec ID/Info : Picture based subtitle format used on BDs/HD-DVDs

  221. Duration : 1 h 42 min

  222. Bit rate : 21.7 kb/s

  223. Count of elements : 1998

  224. Stream size : 15.9 MiB (0%)

  225. Language : Japanese

  226. Default : No

  227. Forced : No

  228. Original source medium : Blu-ray


  229. Text #12

  230. ID : 15

  231. ID in the original source medium : 4777 (0x12A9)

  232. Format : PGS

  233. Muxing mode : zlib

  234. Codec ID : S_HDMV/PGS

  235. Codec ID/Info : Picture based subtitle format used on BDs/HD-DVDs

  236. Duration : 1 h 42 min

  237. Bit rate : 43.3 kb/s

  238. Count of elements : 2372

  239. Stream size : 31.8 MiB (0%)

  240. Language : Japanese

  241. Default : No

  242. Forced : No

  243. Original source medium : Blu-ray


  244. Menu

  245. 00:00:00.000 : en:Chapter 01

  246. 00:01:34.344 : en:Chapter 02

  247. 00:05:20.570 : en:Chapter 03

  248. 00:07:47.925 : en:Chapter 04

  249. 00:11:06.957 : en:Chapter 05

  250. 00:12:58.027 : en:Chapter 06

  251. 00:15:20.920 : en:Chapter 07

  252. 00:19:31.253 : en:Chapter 08

  253. 00:22:32.184 : en:Chapter 09

  254. 00:25:31.863 : en:Chapter 10

  255. 00:27:11.963 : en:Chapter 11

  256. 00:30:53.351 : en:Chapter 12

  257. 00:33:13.533 : en:Chapter 13

  258. 00:35:27.542 : en:Chapter 14

  259. 00:38:43.863 : en:Chapter 15

  260. 00:41:32.698 : en:Chapter 16

  261. 00:46:10.517 : en:Chapter 17

  262. 00:48:00.544 : en:Chapter 18

  263. 00:51:23.955 : en:Chapter 19

  264. 00:53:35.670 : en:Chapter 20

  265. 00:55:19.858 : en:Chapter 21

  266. 00:59:34.153 : en:Chapter 22

  267. 01:01:23.304 : en:Chapter 23

  268. 01:05:11.157 : en:Chapter 24

  269. 01:07:03.769 : en:Chapter 25

  270. 01:11:51.640 : en:Chapter 26

  271. 01:13:24.775 : en:Chapter 27

  272. 01:15:24.561 : en:Chapter 28

  273. 01:17:49.331 : en:Chapter 29

  274. 01:19:39.608 : en:Chapter 30

  275. 01:22:37.160 : en:Chapter 31

  276. 01:24:05.915 : en:Chapter 32

  277. 01:27:16.981 : en:Chapter 33

  278. 01:29:05.548 : en:Chapter 34

  279. 01:34:13.356 : en:Chapter 35

  280. 01:35:49.952 : en:Chapter 36

  281. 01:38:34.033 : en:Chapter 37

  282. 01:41:03.974 : en:Chapter 38

复制代码

雨中曲[中文字幕].Singin.in.the.Rain.1952.2160p.BluRay.x264.8bit.SDR.DTS HD.MA.5.1 SWTYBLZ 50.70GB  欧美电影  第2张 雨中曲[中文字幕].Singin.in.the.Rain.1952.2160p.BluRay.x264.8bit.SDR.DTS HD.MA.5.1 SWTYBLZ 50.70GB  欧美电影  第3张 雨中曲[中文字幕].Singin.in.the.Rain.1952.2160p.BluRay.x264.8bit.SDR.DTS HD.MA.5.1 SWTYBLZ 50.70GB  欧美电影  第4张 雨中曲[中文字幕].Singin.in.the.Rain.1952.2160p.BluRay.x264.8bit.SDR.DTS HD.MA.5.1 SWTYBLZ 50.70GB  欧美电影  第5张 雨中曲[中文字幕].Singin.in.the.Rain.1952.2160p.BluRay.x264.8bit.SDR.DTS HD.MA.5.1 SWTYBLZ 50.70GB  欧美电影  第6张 雨中曲[中文字幕].Singin.in.the.Rain.1952.2160p.BluRay.x264.8bit.SDR.DTS HD.MA.5.1 SWTYBLZ 50.70GB  欧美电影  第7张 雨中曲[中文字幕].Singin.in.the.Rain.1952.2160p.BluRay.x264.8bit.SDR.DTS HD.MA.5.1 SWTYBLZ 50.70GB  欧美电影  第8张 雨中曲[中文字幕].Singin.in.the.Rain.1952.2160p.BluRay.x264.8bit.SDR.DTS HD.MA.5.1 SWTYBLZ 50.70GB  欧美电影  第9张 雨中曲[中文字幕].Singin.in.the.Rain.1952.2160p.BluRay.x264.8bit.SDR.DTS HD.MA.5.1 SWTYBLZ 50.70GB  欧美电影  第10张 雨中曲[中文字幕].Singin.in.the.Rain.1952.2160p.BluRay.x264.8bit.SDR.DTS HD.MA.5.1 SWTYBLZ 50.70GB  欧美电影  第11张



文件下载


除非特别注明,本文『雨中曲[中文字幕].Singin.in.the.Rain.1952.2160p.BluRay.x264.8bit.SDR.DTS-HD.MA.5.1-SWTYBLZ 50.70GB』来源于互联网机器人自动抓取,非本站原创。 浮游电影网不对本文拥有版权,如有侵犯,请联系邮箱:fuyouu#yandex.com[#换成@]投诉。我们会在15个工作日内删除。 但烦请转载时请标明出处:“本文转载于『浮游电影网』,原文地址:https://www.fuyouu.com/21651.html

评论吧骚年!

发表你的见解   

昵称*

E-mail*(建议输入,以便收到博主回复的提示邮件)

验证码*

您可以使用eMule或eMule Mod(Windows)、aMule(Win、Linux、Mac)等软件下载eD2k链接。。
eMule收藏集(.emulecollection)文件是您选中的所有链接的列表文件。eMule可以直接下载它们。
按住SHIFT键选择可以选中多个选择框。
可用文件名和大小选择器来选择文件。
文件名选择器帮您根据文件名称或后缀来选择文件。不分大小写。
符号使用:
和:空格( )、+
不包含:-
或:|
转义:一对英文引号("");
匹配开头:^
匹配结尾:$
例如:
选中所有名称中包含有“eMule”或“0.49c”字眼,但不包含有“exe”字眼的:emule|0.49c -exe
选中所有名称的开头是“eMule”,结尾是“0.49c”的:^emule 0.49c$
选中所有名称中带有“eMule 0.49c”的(必须是“eMule 0.49c”,中间没有别的字符,不能是“eMule fake 0.49c”),需要转义:"emule 0.49c"
大小选择器帮您根据文件大小选择文件。