当前位置: 首页 >> 动画电影 >> 我们的冬奥[国语配音/中文字幕].Me.and.My.Winter.Games.2022.WEB-DL.4K.H265.DDP.5.1.&.AAC.2Audios-HOMEWEB 2.37GB >> 正文

我们的冬奥[国语配音/中文字幕].Me.and.My.Winter.Games.2022.WEB-DL.4K.H265.DDP.5.1.&.AAC.2Audios-HOMEWEB 2.37GB

2022年04月23日 23:01:50     电影发布:来源于网络     电影分类:动画电影     评论(0)    

我们的冬奥[国语配音/中文字幕].Me.and.My.Winter.Games.2022.WEB DL.4K.H265.DDP.5.1.&.AAC.2Audios HOMEWEB 2.37GB  动画电影  第1张

◎译 名 我们的冬奥 / 我和我的冬奥 / Me and My Winter Games

◎年 代 2022

◎产 地 中国大陆

◎类 别 剧情 / 动画

◎语 言 汉语普通话

◎上映日期 2022-02-19(中国大陆)

◎IMDb链接 https://www.imdb.com/title/tt18080516/

◎豆瓣链接 https://movie.douban.com/subject/35517371/

◎片 长 90分钟

◎导 演 林永长 Yongchang Lin (id:1352577)

李豪凌 Haoling Li (id:1343518)

庄昊 Hao Zhuang (id:1464940)

曲强 Qiang Qu (id:1464941)

钟鸣 Ming Zhong (id:1465451)

张喆 Zhe Zhang (id:1465453)

王利文 Liwen Wang (id:1465454)

◎编 剧 徐芸 Yun Xu (id:1336906)

王刚 Gang Wang (id:1465455)

张杰 Jie Zhang (id:1465458)

徐碧君 Bijun Xu (id:1465459)

徐博 Bo Xu (id:1465460)

韩飞翼 Feiyi Han (id:1465461)

谢鹏 Peng Xie (id:1465462)

潘晓璇 Xiaoxuan Pan (id:1465463)

◎演 员 申世佑 Shiyou Shen (id:1465198)

刘思奇 Siqi Liu (id:1336939)

张茗 Ming Zhang (id:1410984)

贾晨露 Chenlu Jia (id:1448197)

杨凝 Ning Yang (id:1390171)

宝木中阳 Ming Song (id:1334350)

姜广涛 Guangtao Jiang (id:1317670)

山新 Shuang Wang (id:1334349)

徐春妮 Chunni Xu (id:1356929)

张鹂 Li Zhang (id:1465199)

李立宏 Lihong Li (id:1320458)

王凯 Kai Wang (id:1355495)

刘炫锐 Xuanrui Liu (id:1444359)

潘延 Yan Pan (id:1317642)

符冲 Chong Fu (id:1321914)

崔杰 Jie Cui (id:1313517)

陈兆雄 Zhaoxiong Chen (id:1443640)

王诤 Zheng Wang (id:1440101)

王裕仁 Yuren Wang (id:1415982)

◎简 介

冰墩墩和雪容融在去参加奥运村的开村典礼时发生了一系列奇妙故事。小光头强与小熊大熊二一起帮助大家从暴风雪中脱险;九月偶然“捡到”冰墩墩,将其送回的同时收获完美假期;小虎妞在玩具的鼓励下勇敢面对挑战;大圣借“冰器”时遇到图图一起参加天宫冰雪大会。从孙悟空到非人哉,片中集合30多位知名IP动画角色热血集结,唤醒五代人的童年回忆。

冰墩墩雪容融领衔主演,冬奥会唯一授权动画电影,打造开年最有意义的动画电影!

  1. ##### MediaInfo ######

  2. General

  3. Unique ID : 182916005319682470934388371388152043371 (0x899C57589307D0A88D269A22FA52576B)

  4. Complete name : Me and My Winter Games 2022 WEB-DL 4K H265 DDP 5.1 & AAC 2Audios-Dave.mkv

  5. Format : Matroska

  6. Format version : Version 4

  7. File size : 2.37 GiB

  8. Duration : 1 h 29 min

  9. Overall bit rate : 3 785 kb/s

  10. Encoded date : UTC 2022-04-23 03:52:35

  11. Writing application : mkvmerge v63.0.0 ('Everything') 64-bit

  12. Writing library : libebml v1.4.2 + libmatroska v1.6.4

  13. Video

  14. ID : 1

  15. Format : HEVC

  16. Format/Info : High Efficiency Video Coding

  17. Format profile : Main [email protected]@Main

  18. Codec ID : V_MPEGH/ISO/HEVC

  19. Duration : 1 h 29 min

  20. Bit rate : 3 337 kb/s

  21. Width : 3 840 pixels

  22. Height : 1 608 pixels

  23. Display aspect ratio : 2.40:1

  24. Frame rate mode : Constant

  25. Frame rate : 24.000 FPS

  26. Color space : YUV

  27. Chroma subsampling : 4:2:0

  28. Bit depth : 10 bits

  29. Bits/(Pixel*Frame) : 0.023

  30. Stream size : 2.09 GiB (88%)

  31. Default : Yes

  32. Forced : No

  33. Color range : Limited

  34. Color primaries : BT.709

  35. Transfer characteristics : BT.709

  36. Matrix coefficients : BT.709

  37. Audio #1

  38. ID : 2

  39. Format : E-AC-3

  40. Format/Info : Enhanced AC-3

  41. Commercial name : Dolby Digital Plus

  42. Codec ID : A_EAC3

  43. Duration : 1 h 29 min

  44. Bit rate mode : Constant

  45. Bit rate : 256 kb/s

  46. Channel(s) : 6 channels

  47. Channel layout : L R C LFE Ls Rs

  48. Sampling rate : 48.0 kHz

  49. Frame rate : 31.250 FPS (1536 SPF)

  50. Compression mode : Lossy

  51. Stream size : 164 MiB (7%)

  52. Language : Chinese

  53. Service kind : Complete Main

  54. Default : Yes

  55. Forced : No

  56. Audio #2

  57. ID : 3

  58. Format : AAC LC

  59. Format/Info : Advanced Audio Codec Low Complexity

  60. Codec ID : A_AAC-2

  61. Duration : 1 h 29 min

  62. Bit rate : 192 kb/s

  63. Channel(s) : 2 channels

  64. Channel layout : L R

  65. Sampling rate : 44.1 kHz

  66. Frame rate : 43.066 FPS (1024 SPF)

  67. Compression mode : Lossy

  68. Stream size : 122 MiB (5%)

  69. Language : Chinese

  70. Default : Yes

  71. Forced : No


复制代码



文件下载


除非特别注明,本文『我们的冬奥[国语配音/中文字幕].Me.and.My.Winter.Games.2022.WEB-DL.4K.H265.DDP.5.1.&.AAC.2Audios-HOMEWEB 2.37GB』来源于互联网机器人自动抓取,非本站原创。 浮游电影网不对本文拥有版权,如有侵犯,请联系邮箱:fuyouu#yandex.com[#换成@]投诉。我们会在15个工作日内删除。 但烦请转载时请标明出处:“本文转载于『浮游电影网』,原文地址:https://www.fuyouu.com/21650.html

评论吧骚年!

发表你的见解   

昵称*

E-mail*(建议输入,以便收到博主回复的提示邮件)

验证码*

您可以使用eMule或eMule Mod(Windows)、aMule(Win、Linux、Mac)等软件下载eD2k链接。。
eMule收藏集(.emulecollection)文件是您选中的所有链接的列表文件。eMule可以直接下载它们。
按住SHIFT键选择可以选中多个选择框。
可用文件名和大小选择器来选择文件。
文件名选择器帮您根据文件名称或后缀来选择文件。不分大小写。
符号使用:
和:空格( )、+
不包含:-
或:|
转义:一对英文引号("");
匹配开头:^
匹配结尾:$
例如:
选中所有名称中包含有“eMule”或“0.49c”字眼,但不包含有“exe”字眼的:emule|0.49c -exe
选中所有名称的开头是“eMule”,结尾是“0.49c”的:^emule 0.49c$
选中所有名称中带有“eMule 0.49c”的(必须是“eMule 0.49c”,中间没有别的字符,不能是“eMule fake 0.49c”),需要转义:"emule 0.49c"
大小选择器帮您根据文件大小选择文件。