当前位置: 首页 >> 海外电影 >> 9路冥婚[粤英多音轨/繁英字幕].9-9-81.2012.BluRay.1080p.2Audio.TrueHD.5.1.x265.10bit-ALT 7.97GB >> 正文

9路冥婚[粤英多音轨/繁英字幕].9-9-81.2012.BluRay.1080p.2Audio.TrueHD.5.1.x265.10bit-ALT 7.97GB

2022年04月23日 22:59:49     电影发布:来源于网络     电影分类:海外电影     评论(0)    

9路冥婚[粤英多音轨/繁英字幕].9 9 81.2012.BluRay.1080p.2Audio.TrueHD.5.1.x265.10bit ALT 7.97GB  海外电影  第1张

◎译 名 9路冥婚 / 阴缘(台) / ??????? 9 ??

◎片 名 9-9-81 ???-????-9-??

◎年 代 2012

◎产 地 泰国

◎类 别 惊悚 / 恐怖

◎语 言 泰语

◎上映日期 2012-09-13(泰国)

◎IMDb链接 https://www.imdb.com/title/tt2403278/

◎豆瓣评分 5.5/10 (2359人评价)

◎豆瓣链接 https://movie.douban.com/subject/19951145/

◎片 长 92分钟

◎导 演 Rapeepimol Chaisaena Rapeepimol Chaisaena (id:1332007)

◎编 剧 Dulyasit Niyomgul Dulyasit Niyomgul (id:1338988)

◎演 员 Patitta Attayatamavitaya Patitta Attayatamavitaya (id:1332008)

杰狄.塞缇坦斯缇.利姆卡斯迪德简 Setsit Limkasitdej (id:1465585)

Thiti Vetchabul Thiti Vetchabul (id:1332010)

(id:1332009)

Watthanachai Dulyakovit Watthanachai Dulyakovit (id:1338999)

Surasak Pranken Surasak Pranken (id:1339000)

Suphitchaya Janprakob Suphitchaya Janprakob (id:1339011)

Disney Sinchairungchat Disney Sinchairungchat (id:1339010)

◎简 介

阴云密布的一天,身着美丽婚纱的新娘小薇(Setsit Limkasitdej 饰)留下遗书后,步步踏上公寓楼顶,纵身跃下。此前经大学好友朋友阿朗介绍,小薇结识了某大型企业白领精英阿光。俊男靓女,你侬我侬,热切期盼走入婚姻殿堂的小薇,却意外从阿朗口中得知未婚夫车祸身亡的噩耗。新娘的鲜血染红白色婚纱,而背后隐藏的秘密以及新娘深深的怨念又使得她住过的1616公寓成为令人闻风丧胆的凶宅。

影片由《外卖员》《新房客》《朋友》《爱人》《佣人》《母亲》《新郎》《老兵》《老探员》等九个短篇组成,通过对小薇自杀前后日子以及相关人员的片段呈现,揭示了一个美丽而薄命女子的短暂一生……

◎获奖情况 (共5项)

第22届泰国电影金天鹅奖 (2013)

最佳剧本(提名)

最佳摄影

最佳剪辑(提名)

最佳音效(提名)

最佳化妆(提名)

  1. ##### MediaInfo ######

  2. General

  3. Unique ID : 331592378192308441330483212085415653928 (0xF9765E7A00B4E97FFE8BCC8D5AE83228)

  4. Complete name : 9-9-81.2012.BluRay.1080p.2Audio.TrueHD.5.1.x265.10bit-BeiTai.mkv

  5. Format : Matroska

  6. Format version : Version 4

  7. File size : 7.97 GiB

  8. Duration : 1 h 31 min

  9. Overall bit rate mode : Variable

  10. Overall bit rate : 12.5 Mb/s

  11. Encoded date : UTC 2022-04-23 05:52:59

  12. Writing application : mkvmerge v49.0.0 ('Sick Of Losing Soulmates') 64-bit

  13. Writing library : libebml v1.4.0 + libmatroska v1.6.1

  14. Video

  15. ID : 1

  16. Format : HEVC

  17. Format/Info : High Efficiency Video Coding

  18. Format profile : Main [email protected]@High

  19. Codec ID : V_MPEGH/ISO/HEVC

  20. Duration : 1 h 31 min

  21. Bit rate : 5 033 kb/s

  22. Width : 1 920 pixels

  23. Height : 1 080 pixels

  24. Display aspect ratio : 16:9

  25. Frame rate mode : Constant

  26. Frame rate : 23.976 (24000/1001/53354) FPS

  27. Color space : YUV

  28. Chroma subsampling : 4:2:0

  29. Bit depth : 10 bits

  30. Bits/(Pixel*Frame) : 0.101

  31. Stream size : 3.22 GiB (40%)

  32. Title : HEVC, [email protected]@High, 24/1.001 fps @ 5032 kbps

  33. Writing library : x265 3.5+36-1f2c8da77:[Windows][GCC 11.2.0][64 bit] 10bit

  34. Encoding settings : cpuid=533541049583 / frame-threads=2 / numa-pools=4 / wpp / pmode / pme / no-psnr / no-ssim / log-level=2 / input-csp=1 / input-res=1920x1080 / interlace=0 / total-frames=131668 / level-idc=51 / high-tier=1 / uhd-bd=0 / ref=5 / no-allow-non-conformance / no-repeat-headers / annexb / no-aud / no-eob / no-eos / no-hrd / info / hash=0 / no-temporal-layers / open-gop / min-keyint=24 / keyint=240 / gop-lookahead=0 / bframes=6 / b-adapt=2 / b-pyramid / bframe-bias=0 / rc-lookahead=40 / lookahead-slices=0 / NTMzNTQ=uuDQuD2mJt9fsCf / scenecut=40 / no-hist-scenecut / radl=0 / no-splice / no-intra-refresh / ctu=32 / min-cu-size=8 / no-rect / no-amp / max-tu-size=32 / tu-inter-depth=3 / tu-intra-depth=3 / limit-tu=4 / rdoq-level=2 / dynamic-rd=0.00 / no-ssim-rd / signhide / no-tskip / nr-intra=0 / nr-inter=0 / no-constrained-intra / no-strong-intra-smoothing / max-merge=4 / limit-refs=1 / limit-modes / me=3 / subme=4 / merange=25 / temporal-mvp / no-frame-dup / no-hme / weightp / weightb / no-analyze-src-pics / deblock=-3:-3 / no-sao / no-sao-non-deblock / rd=6 / selective-sao=0 / no-early-skip / rskip / no-fast-intra / no-tskip-fast / no-cu-lossless / b-intra / no-splitrd-skip / rdpenalty=0 / psy-rd=2.00 / psy-rdoq=1.00 / no-rd-refine / no-lossless / cbqpoffs=0 / crqpoffs=0 / rc=crf / crf=17.0 / qcomp=0.65 / qpstep=4 / stats-write=0 / stats-read=0 / vbv-maxrate=80000 / vbv-bufsize=80000 / vbv-init=0.9 / min-vbv-fullness=50.0 / max-vbv-fullness=80.0 / crf-max=0.0 / crf-min=0.0 / ipratio=1.40 / pbratio=1.30 / aq-mode=2 / aq-strength=0.85 / cutree / zone-count=0 / no-strict-cbr / qg-size=32 / no-rc-grain / qpmax=69 / qpmin=0 / no-const-vbv / sar=1 / overscan=0 / videoformat=5 / range=0 / colorprim=1 / transfer=1 / colormatrix=1 / chromaloc=0 / display-window=0 / cll=0,0 / min-luma=0 / max-luma=1023 / log2-max-poc-lsb=8 / vui-timing-info / vui-hrd-info / slices=1 / no-opt-qp-pps / no-opt-ref-list-length-pps / no-multi-pass-opt-rps / scenecut-bias=0.05 / hist-threshold=0.03 / no-opt-cu-delta-qp / no-aq-motion / no-hdr10 / no-hdr10-opt / no-dhdr10-opt / no-idr-recovery-sei / analysis-reuse-level=0 / analysis-save-reuse-level=0 / analysis-load-reuse-level=0 / scale-factor=0 / refine-intra=0 / refine-inter=0 / refine-mv=1 / refine-ctu-distortion=0 / no-limit-sao / ctu-info=0 / no-lowpass-dct / refine-analysis-type=0 / copy-pic=1 / max-ausize-factor=1.0 / no-dynamic-refine / no-single-sei / no-hevc-aq / no-svt / no-field / qp-adaptation-range=1.00 / scenecut-aware-qp=0conformance-window-offsets / right=0 / bottom=0 / NTMzNTQ= / decoder-max-rate=0 / no-vbv-live-multi-pass

  35. Language : English

  36. Default : Yes

  37. Forced : No

  38. Color range : Limited

  39. Color primaries : BT.709

  40. Transfer characteristics : BT.709

  41. Matrix coefficients : BT.709

  42. Audio #1

  43. ID : 2

  44. Format : MLP FBA

  45. Format/Info : Meridian Lossless Packing FBA

  46. Commercial name : Dolby TrueHD

  47. Codec ID : A_TRUEHD

  48. Duration : 1 h 31 min

  49. Bit rate mode : Variable

  50. Bit rate : 2 916 kb/s

  51. Maximum bit rate : 4 728 kb/s

  52. Channel(s) : 6 channels

  53. Channel layout : L R C LFE Ls Rs

  54. Sampling rate : 96.0 kHz

  55. Frame rate : 1 200.000 FPS (80 SPF)

  56. Compression mode : Lossless

  57. Stream size : 1.86 GiB (23%)

  58. Title : Thai Dolby TrueHD Audio 5.1 @ 2916 kbps

  59. Language : Thai

  60. Default : Yes

  61. Forced : No

  62. Audio #2

  63. ID : 3

  64. Format : AC-3

  65. Format/Info : Audio Coding 3

  66. Commercial name : Dolby Digital

  67. Codec ID : A_AC3

  68. Duration : 1 h 31 min

  69. Bit rate mode : Constant

  70. Bit rate : 640 kb/s

  71. Channel(s) : 6 channels

  72. Channel layout : L R C LFE Ls Rs

  73. Sampling rate : 48.0 kHz

  74. Frame rate : 31.250 FPS (1536 SPF)

  75. Compression mode : Lossy

  76. Stream size : 419 MiB (5%)

  77. Title : Thai Dolby Digital Audio 5.1 @ 640 kbps

  78. Language : Thai

  79. Service kind : Complete Main

  80. Default : No

  81. Forced : No

  82. Audio #3

  83. ID : 4

  84. Format : MLP FBA

  85. Format/Info : Meridian Lossless Packing FBA

  86. Commercial name : Dolby TrueHD

  87. Codec ID : A_TRUEHD

  88. Duration : 1 h 31 min

  89. Bit rate mode : Variable

  90. Bit rate : 3 077 kb/s

  91. Maximum bit rate : 4 890 kb/s

  92. Channel(s) : 6 channels

  93. Channel layout : L R C LFE Ls Rs

  94. Sampling rate : 96.0 kHz

  95. Frame rate : 1 200.000 FPS (80 SPF)

  96. Compression mode : Lossless

  97. Stream size : 1.97 GiB (25%)

  98. Title : Cantonese Dolby TrueHD Audio 5.1 @ 3077 kbps

  99. Language : Chinese

  100. Default : No

  101. Forced : No

  102. Audio #4

  103. ID : 5

  104. Format : AC-3

  105. Format/Info : Audio Coding 3

  106. Commercial name : Dolby Digital

  107. Codec ID : A_AC3

  108. Duration : 1 h 31 min

  109. Bit rate mode : Constant

  110. Bit rate : 640 kb/s

  111. Channel(s) : 6 channels

  112. Channel layout : L R C LFE Ls Rs

  113. Sampling rate : 48.0 kHz

  114. Frame rate : 31.250 FPS (1536 SPF)

  115. Compression mode : Lossy

  116. Stream size : 419 MiB (5%)

  117. Title : Cantonese Dolby Digital Audio 5.1 @ 640 kbps

  118. Language : Chinese

  119. Service kind : Complete Main

  120. Default : No

  121. Forced : No

  122. Text #1

  123. ID : 6

  124. Format : PGS

  125. Codec ID : S_HDMV/PGS

  126. Codec ID/Info : Picture based subtitle format used on BDs/HD-DVDs

  127. Duration : 1 h 27 min

  128. Bit rate : 10.5 kb/s

  129. Count of elements : 958

  130. Stream size : 6.57 MiB (0%)

  131. Title : Cht/SUP 原盘繁体

  132. Language : Chinese

  133. Default : Yes

  134. Forced : No

  135. Text #2

  136. ID : 7

  137. Format : PGS

  138. Codec ID : S_HDMV/PGS

  139. Codec ID/Info : Picture based subtitle format used on BDs/HD-DVDs

  140. Duration : 1 h 27 min

  141. Bit rate : 12.1 kb/s

  142. Count of elements : 958

  143. Stream size : 7.54 MiB (0%)

  144. Title : Eng/SUP

  145. Language : English

  146. Default : No

  147. Forced : No

  148. Menu

  149. 00:00:00.000 : en:第 01 章

  150. 00:03:42.806 : en:第 02 章

  151. 00:12:07.185 : en:第 03 章

  152. 00:22:01.570 : en:第 04 章

  153. 00:30:24.114 : en:第 05 章

  154. 00:39:13.434 : en:第 06 章

  155. 00:49:22.501 : en:第 07 章

  156. 00:58:45.772 : en:第 08 章

  157. 01:07:42.392 : en:第 09 章

  158. 01:17:23.722 : en:第 10 章

  159. 01:28:29.638 : en:第 11 章


复制代码



文件下载


除非特别注明,本文『9路冥婚[粤英多音轨/繁英字幕].9-9-81.2012.BluRay.1080p.2Audio.TrueHD.5.1.x265.10bit-ALT 7.97GB』来源于互联网机器人自动抓取,非本站原创。 浮游电影网不对本文拥有版权,如有侵犯,请联系邮箱:fuyouu#yandex.com[#换成@]投诉。我们会在15个工作日内删除。 但烦请转载时请标明出处:“本文转载于『浮游电影网』,原文地址:https://www.fuyouu.com/21648.html

评论吧骚年!

发表你的见解   

昵称*

E-mail*(建议输入,以便收到博主回复的提示邮件)

验证码*

您可以使用eMule或eMule Mod(Windows)、aMule(Win、Linux、Mac)等软件下载eD2k链接。。
eMule收藏集(.emulecollection)文件是您选中的所有链接的列表文件。eMule可以直接下载它们。
按住SHIFT键选择可以选中多个选择框。
可用文件名和大小选择器来选择文件。
文件名选择器帮您根据文件名称或后缀来选择文件。不分大小写。
符号使用:
和:空格( )、+
不包含:-
或:|
转义:一对英文引号("");
匹配开头:^
匹配结尾:$
例如:
选中所有名称中包含有“eMule”或“0.49c”字眼,但不包含有“exe”字眼的:emule|0.49c -exe
选中所有名称的开头是“eMule”,结尾是“0.49c”的:^emule 0.49c$
选中所有名称中带有“eMule 0.49c”的(必须是“eMule 0.49c”,中间没有别的字符,不能是“eMule fake 0.49c”),需要转义:"emule 0.49c"
大小选择器帮您根据文件大小选择文件。