当前位置: 首页 >> 欧美电影 >> 星际传奇[共3部合集][简繁英字幕].Riddick.2000-2013.BluRay.1080p.DTS-HD.MA.5.1.x265.10bit-ALT 32.54GB >> 正文

星际传奇[共3部合集][简繁英字幕].Riddick.2000-2013.BluRay.1080p.DTS-HD.MA.5.1.x265.10bit-ALT 32.54GB

2022年04月23日 22:58:52     电影发布:来源于网络     电影分类:欧美电影     评论(0)    

星际传奇[共3部合集][简繁英字幕].Riddick.2000 2013.BluRay.1080p.DTS HD.MA.5.1.x265.10bit ALT 32.54GB  欧美电影  第1张

◎译 名 星际传奇3 / 星兽浩劫(港) / 超世纪战警:暗黑对决(台) / Riddick: Rule the Dark / RIddck / The Chronicles of Riddick: Dead Man Stalking

◎片 名 Riddick

◎年 代 2013

◎产 地 美国 / 英国

◎类 别 动作 / 科幻 / 惊悚

◎语 言 英语

◎上映日期 2013-09-06(美国)

◎IMDb链接 https://www.imdb.com/title/tt1411250/

◎豆瓣评分 6.5/10 (25555人评价)

◎豆瓣链接 https://movie.douban.com/subject/3652297/

◎片 长 119分钟

◎导 演 大卫·杜西 David Twohy (id:1027430)

◎编 剧 大卫·杜西 David Twohy (id:1027430)

Oliver Butcher Oliver Butcher (id:1330290)

Stephen Cornwell Stephen Cornwell (id:1330291)

肯·维特 Ken Wheat (id:1276306)

吉姆·维特 Jim Wheat (id:1300776)

◎演 员 范·迪塞尔 Vin Diesel (id:1041020)

詹迪·莫拉 Jordi Mollà (id:1010647)

马特·纳夫莱 Matt Nable (id:1333641)

凯缇·萨克霍夫 Katee Sackhoff (id:1000063)

戴夫·巴蒂斯塔 Dave Bautista (id:1014003)

博基姆·伍德拜因 Bokeem Woodbine (id:1000287)

劳尔·特鲁希洛 Raoul Trujillo (id:1157871)

诺兰·杰拉德·冯克 Nolan Gerard Funk (id:1315292)

卡尔·厄本 Karl Urban (id:1017903)

凯莉·希尔森 Keri Hilson (id:1313327)

安托瓦内特·尼普莱拉 Antoinette Nikprelaj (id:1314876)

诺亚·丹比 Noah Danby (id:1077519)

◎简 介

孔武有力的瑞迪克(范·迪塞尔 Vin Diesel 饰)终于坐上组织的宝座,强兵悍将拜倒阶下,与此同时又有更多野心家蠢蠢欲动,时刻准备取代他的位置。直到某天,瑞迪克被亲信哄骗离开舰队,启程返回阔别已久的家乡,谁知竟被带到一颗充满凶险的蛮荒星球,进而更遭到随从的背叛和追杀 。侥幸逃得一命的瑞迪克满身伤痕,而这颗行星上到处都是凶猛的野兽和可怕的异形。为了求生,他只有将自己化身为杀气十足的杀神,以驯服这群时时刻刻想要吃掉他的异界生物。当然,更大的挑战和危险远远不止这些,迪瑞克依然活着的消息传遍全宇宙,由此引来一波又一波的赏金猎人试图割下他的脑袋。

生死之战,在陌生的星球展开……

  1. 合集文件列表:

  2. 1.Pitch.Black.2000.Unrated.BluRay.1080p.DTS-HD.MA.5.1.x265.10bit-ALT.mkv 12.76GB

  3. 2.Riddick.2013.Unrated.BluRay.1080p.DTS-HD.MA.5.1.x265.10bit-ALT.mkv 9.11GB

  4. 3.The.Chronicles.of.Riddick.2004.Unrated.BluRay.1080p.DTS-HD.MA.5.1.x265.10bit-ALT.mkv 10.67GB


复制代码

  1. ##### MediaInfo ######

  2. General

  3. Unique ID : 315790863009050922481235256384378767841 (0xED931BA0DC8BFD85227929680F2E09E1)

  4. Complete name : Pitch.Black.2000.Unrated.BluRay.1080p.DTS-HD.MA.5.1.x265.10bit-BeiTai.mkv

  5. Format : Matroska

  6. Format version : Version 4

  7. File size : 12.8 GiB

  8. Duration : 1 h 51 min

  9. Overall bit rate mode : Variable

  10. Overall bit rate : 16.3 Mb/s

  11. Encoded date : UTC 2020-01-04 02:08:37

  12. Writing application : mkvmerge v42.0.0 ('Overtime') 64-bit

  13. Writing library : libebml v1.3.10 + libmatroska v1.5.2

  14. Video

  15. ID : 1

  16. Format : HEVC

  17. Format/Info : High Efficiency Video Coding

  18. Format profile : Main [email protected]@High

  19. HDR format : SMPTE ST 2086

  20. Codec ID : V_MPEGH/ISO/HEVC

  21. Duration : 1 h 51 min

  22. Bit rate : 12.0 Mb/s

  23. Width : 1 920 pixels

  24. Height : 816 pixels

  25. Display aspect ratio : 2.35:1

  26. Frame rate mode : Constant

  27. Frame rate : 23.976 (24000/1001/53354) FPS

  28. Color space : YUV

  29. Chroma subsampling : 4:2:0

  30. Bit depth : 10 bits

  31. Bits/(Pixel*Frame) : 0.321

  32. Stream size : 9.42 GiB (74%)

  33. Title : HEVC, [email protected]@High, 24/1.001 fps @ 12045 kbps

  34. Writing library : x265 3.0_Au+4-dcbec33bfb0f:[Windows][GCC 8.2.1][64 bit] 10bit

  35. Encoding settings : cpuid=533541111039 / frame-threads=3 / numa-pools=8 / wpp / pmode / pme / no-psnr / no-ssim / log-level=2 / input-csp=1 / input-res=1920x816 / interlace=0 / total-frames=161003 / level-idc=51 / high-tier=1 / uhd-bd=0 / ref=5 / no-allow-non-conformance / repeat-headers / annexb / no-aud / no-hrd / info / hash=0 / no-temporal-layers / no-open-gop / min-keyint=24 / keyint=240 / gop-lookahead=0 / bframes=6 / b-adapt=2 / b-pyramid / bframe-bias=0 / rc-lookahead=40 / lookahead-slices=0 / NTMzNTQ=uuDQuD2mJt9fsCf / scenecut=40 / radl=0 / no-splice / no-intra-refresh / ctu=32 / min-cu-size=8 / no-rect / no-amp / max-tu-size=32 / tu-inter-depth=3 / tu-intra-depth=3 / limit-tu=4 / rdoq-level=2 / dynamic-rd=0.00 / no-ssim-rd / signhide / no-tskip / nr-intra=0 / nr-inter=0 / no-constrained-intra / no-strong-intra-smoothing / max-merge=4 / limit-refs=1 / limit-modes / me=3 / subme=4 / merange=25 / temporal-mvp / weightp / weightb / no-analyze-src-pics / deblock=-3:-3 / no-sao / no-sao-non-deblock / rd=6 / no-early-skip / rskip / no-fast-intra / no-tskip-fast / no-cu-lossless / b-intra / no-splitrd-skip / rdpenalty=0 / psy-rd=2.00 / psy-rdoq=1.00 / no-rd-refine / no-lossless / cbqpoffs=0 / crqpoffs=0 / rc=crf / crf=17.0 / qcomp=0.65 / qpstep=4 / stats-write=0 / stats-read=0 / vbv-maxrate=80000 / vbv-bufsize=80000 / vbv-init=0.9 / crf-max=0.0 / crf-min=0.0 / ipratio=1.40 / pbratio=1.30 / aq-mode=2 / aq-strength=0.85 / cutree / zone-count=0 / no-strict-cbr / qg-size=32 / no-rc-grain / qpmax=69 / qpmin=0 / no-const-vbv / sar=1 / overscan=0 / videoformat=5 / range=0 / colorprim=1 / transfer=1 / colormatrix=1 / chromaloc=0 / display-window=0 / master-display=G(15000,30000)B(7500,3000)R(32000,16500)WP(15635,16450)L(10000000,1) / max-cll=1000,1 / min-luma=0 / max-luma=1023 / log2-max-poc-lsb=8 / vui-timing-info / vui-hrd-info / slices=1 / no-opt-qp-pps / no-opt-ref-list-length-pps / no-multi-pass-opt-rps / scenecut-bias=0.05 / no-opt-cu-delta-qp / no-aq-motion / hdr / no-hdr-opt / no-dhdr10-opt / no-idr-recovery-sei / analysis-reuse-level=5 / scale-factor=0 / refine-intra=0 / refine-inter=0 / refine-mv=0 / refine-ctu-distortion=0 / no-limit-sao / ctu-info=0 / no-lowpass-dct / refine-analysis-type=0 / copy-pic=1 / max-ausize-factor=1.0 / no-dynamic-refine / no-single-sei / no-hevc-aq / qp-adaptation-range=1.00

  36. Language : English

  37. Default : Yes

  38. Forced : No

  39. Color range : Limited

  40. Color primaries : BT.709

  41. Transfer characteristics : BT.709

  42. Matrix coefficients : BT.709

  43. Mastering display color primaries : BT.709

  44. Mastering display luminance : min: 0.0001 cd/m2, max: 1000 cd/m2

  45. Maximum Content Light Level : 1000 cd/m2

  46. Maximum Frame-Average Light Level : 1 cd/m2

  47. Audio

  48. ID : 2

  49. Format : DTS XLL

  50. Format/Info : Digital Theater Systems

  51. Commercial name : DTS-HD Master Audio

  52. Codec ID : A_DTS

  53. Duration : 1 h 51 min

  54. Bit rate mode : Variable

  55. Bit rate : 4 216 kb/s

  56. Channel(s) : 6 channels

  57. Channel layout : C L R Ls Rs LFE

  58. Sampling rate : 48.0 kHz

  59. Frame rate : 93.750 FPS (512 SPF)

  60. Bit depth : 24 bits

  61. Compression mode : Lossless

  62. Stream size : 3.30 GiB (26%)

  63. Title : English DTS-HD Master Audio 5.1 @ 4216 kbps

  64. Language : English

  65. Default : Yes

  66. Forced : No

  67. Text #1

  68. ID : 3

  69. Format : PGS

  70. Codec ID : S_HDMV/PGS

  71. Codec ID/Info : Picture based subtitle format used on BDs/HD-DVDs

  72. Duration : 1 h 44 min

  73. Bit rate : 29.0 kb/s

  74. Count of elements : 2373

  75. Stream size : 21.6 MiB (0%)

  76. Title : Eng/SUP

  77. Language : English

  78. Default : No

  79. Forced : No

  80. Text #2

  81. ID : 4

  82. Format : PGS

  83. Codec ID : S_HDMV/PGS

  84. Codec ID/Info : Picture based subtitle format used on BDs/HD-DVDs

  85. Duration : 1 h 44 min

  86. Bit rate : 17.2 kb/s

  87. Count of elements : 1924

  88. Stream size : 12.9 MiB (0%)

  89. Title : Chs/SUP 简体

  90. Language : Chinese

  91. Default : Yes

  92. Forced : No

  93. Text #3

  94. ID : 5

  95. Format : PGS

  96. Codec ID : S_HDMV/PGS

  97. Codec ID/Info : Picture based subtitle format used on BDs/HD-DVDs

  98. Duration : 1 h 44 min

  99. Bit rate : 17.8 kb/s

  100. Count of elements : 1924

  101. Stream size : 13.3 MiB (0%)

  102. Title : Cht/SUP 繁体

  103. Language : Chinese

  104. Default : No

  105. Forced : No

  106. Menu

  107. 00:00:00.000 : en:第 01 章

  108. 00:02:56.885 : en:第 02 章

  109. 00:08:28.007 : en:第 03 章

  110. 00:17:05.858 : en:第 04 章

  111. 00:27:13.632 : en:第 05 章

  112. 00:32:27.988 : en:第 06 章

  113. 00:36:49.916 : en:第 07 章

  114. 00:46:49.390 : en:第 08 章

  115. 00:56:08.907 : en:第 09 章

  116. 01:02:45.678 : en:第 10 章

  117. 01:08:07.750 : en:第 11 章

  118. 01:14:22.291 : en:第 12 章

  119. 01:20:00.504 : en:第 13 章

  120. 01:25:38.800 : en:第 14 章

  121. 01:30:14.909 : en:第 15 章

  122. 01:38:59.976 : en:第 16 章

  123. 01:43:37.878 : en:第 17 章

  124. 01:46:13.867 : en:第 18 章


复制代码



文件下载


除非特别注明,本文『星际传奇[共3部合集][简繁英字幕].Riddick.2000-2013.BluRay.1080p.DTS-HD.MA.5.1.x265.10bit-ALT 32.54GB』来源于互联网机器人自动抓取,非本站原创。 浮游电影网不对本文拥有版权,如有侵犯,请联系邮箱:fuyouu#yandex.com[#换成@]投诉。我们会在15个工作日内删除。 但烦请转载时请标明出处:“本文转载于『浮游电影网』,原文地址:https://www.fuyouu.com/21647.html

评论吧骚年!

发表你的见解   

昵称*

E-mail*(建议输入,以便收到博主回复的提示邮件)

验证码*

您可以使用eMule或eMule Mod(Windows)、aMule(Win、Linux、Mac)等软件下载eD2k链接。。
eMule收藏集(.emulecollection)文件是您选中的所有链接的列表文件。eMule可以直接下载它们。
按住SHIFT键选择可以选中多个选择框。
可用文件名和大小选择器来选择文件。
文件名选择器帮您根据文件名称或后缀来选择文件。不分大小写。
符号使用:
和:空格( )、+
不包含:-
或:|
转义:一对英文引号("");
匹配开头:^
匹配结尾:$
例如:
选中所有名称中包含有“eMule”或“0.49c”字眼,但不包含有“exe”字眼的:emule|0.49c -exe
选中所有名称的开头是“eMule”,结尾是“0.49c”的:^emule 0.49c$
选中所有名称中带有“eMule 0.49c”的(必须是“eMule 0.49c”,中间没有别的字符,不能是“eMule fake 0.49c”),需要转义:"emule 0.49c"
大小选择器帮您根据文件大小选择文件。