当前位置: 首页 >> 欧美电影 >> 生化危机[共7部合集][国英多音轨/简繁英字幕].Resident.Evil.2002-2017.BluRay.2160p.2Audio.TrueHD.Atmos.7.1.x265.10bit.HDR >> 正文

生化危机[共7部合集][国英多音轨/简繁英字幕].Resident.Evil.2002-2017.BluRay.2160p.2Audio.TrueHD.Atmos.7.1.x265.10bit.HDR

2022年04月23日 22:57:15     电影发布:来源于网络     电影分类:欧美电影     评论(0)    

生化危机[共7部合集][国英多音轨/简繁英字幕].Resident.Evil.2002 2017.BluRay.2160p.2Audio.TrueHD.Atmos.7.1.x265.10bit.HDR  欧美电影  第1张

◎译 名 生化危机 / 2002恶灵古堡 / 生化危机之变种生还者(港) / 恶灵古堡(台)

◎片 名 Resident Evil

◎年 代 2002

◎产 地 英国 / 德国 / 法国 / 美国 / 加拿大

◎类 别 动作 / 科幻 / 恐怖

◎语 言 英语

◎上映日期 2002-03-15(美国)

◎IMDb链接 https://www.imdb.com/title/tt0120804/

◎豆瓣评分 8.2/10 (313724人评价)

◎豆瓣链接 https://movie.douban.com/subject/1306809/

◎片 长 100 分钟

◎导 演 保罗·安德森 Paul W.S. Anderson (id:1031921)

◎编 剧 保罗·安德森 Paul W.S. Anderson (id:1031921)

◎演 员 米拉·乔沃维奇 Milla Jovovich (id:1025154)

米歇尔·罗德里格兹 Michelle Rodriguez (id:1025174)

科林·萨蒙 Colin Salmon (id:1314721)

埃里克·马比斯 Eric Mabius (id:1044914)

詹姆斯·鲍弗 James Purefoy (id:1017920)

詹森·艾萨克 Jason Isaacs (id:1017916)

海克·玛卡琪 Heike Makatsch (id:1022795)

菲奥娜·格拉斯科特 Fiona Glascott (id:1094753)

帕斯奎尔·阿莱亚尔迪 Pasquale Aleardi (id:1061081)

马丁·克鲁斯 Martin Crewes (id:1343492)

史蒂芬·比灵顿 Stephen Billington (id:1061757)

杰米斯·巴特勒 Jaymes Butler (id:1324699)

约瑟夫·梅 Joseph May (id:1124042)

丽兹·梅·布莱丝 Liz May Brice (id:1343491)

杰米·哈丁 Jamie Harding (id:1212019)

Anna Bolt Anna Bolt (id:1343490)

保罗·安德森 Paul W.S. Anderson (id:1031921)

玛丽莲·曼森 Marilyn Manson (id:1013881)

马可·贝尔崔米 Marco Beltrami (id:1027998)

小出広美 Hiromi Koide (id:1363778)

◎简 介

为军方研究生化武器的安布雷拉公司在浣熊市地下设有巨大的研究中心——蜂巢,由于一次意外事故导致可通过空气传播的生化武器泄露,负责蜂巢安保的电脑系统“红色女王”启动应急措施,却导致数百名工作人员罹难……四小时后,蜂巢安保人员爱丽丝(米拉·乔沃维奇 Milla Jovovich 饰)在蜂巢出口醒来,并且因为催眠气体而失忆。一支受命关闭红色女王的特种小队来到此处,与爱丽丝、自称警察的安德森,以及蜂巢工作人员帕克斯组队深入地下。一行人因任务目标与红色女王冲突而先后遭遇保卫系统和丧尸的连番袭击,而爱丽丝渐渐恢复的记忆揭示了她与同行者非同一般的联系。这场生化丧尸危机该如何解除?又或者根本是一曲绝望的前奏?

本片是根据知名电子游戏《生化危机》改编而成系列电影的首部。

  1. 合集文件列表:

  2. 1.Resident.Evil.2002.UHD.BluRay.2160p.2Audio.TrueHD.Atmos.7.1.x265.10bit.HDR-ALT.mkv 30.17GB

  3. 2.Resident.Evil.Afterlife.2010.UHD.BluRay.2160p.TrueHD.Atmos.7.1.x265.10bit.HDR-ALT.mkv 14.04GB

  4. 3.Resident.Evil.Apocalypse.2004.UHD.BluRay.2160p.2Audio.TrueHD.Atmos.7.1.x265.10bit.HDR-ALT.mkv 17.64GB

  5. 4.Resident.Evil.Extinction.2007.UHD.BluRay.2160p.2Audio.TrueHD.Atmos.7.1.x265.10bit.HDR-ALT.mkv 17.42GB

  6. 5.Resident.Evil.Retribution.2012.UHD.BluRay.2160p.TrueHD.Atmos.7.1.x265.10bit.HDR-ALT.mkv 12.43GB

  7. 6.Resident.Evil.The.Final.Chapter.2016.UHD.BluRay.2160p.TrueHD.Atmos.7.1.x265.10bit.HDR-ALT.mkv 12.77GB

  8. 7.Resident.Evil.Vendetta.2017.UHD.BluRay.2160p.TrueHD.Atmos.7.1.x265.10bit.HDR-ALT.mkv 19.93GB


复制代码

  1. ##### MediaInfo ######

  2. General

  3. Unique ID : 11398858463511797387991382646858700978 (0x893571CE56CF3D21DFC0AB261CBD8B2)

  4. Complete name : Resident.Evil.2002.UHD.BluRay.2160p.2Audio.TrueHD.Atmos.7.1.x265.10bit.HDR-BeiTai.mkv

  5. Format : Matroska

  6. Format version : Version 4

  7. File size : 30.2 GiB

  8. Duration : 1 h 40 min

  9. Overall bit rate mode : Variable

  10. Overall bit rate : 43.0 Mb/s

  11. Encoded date : UTC 2020-11-28 07:53:21

  12. Writing application : mkvmerge v49.0.0 ('Sick Of Losing Soulmates') 64-bit

  13. Writing library : libebml v1.4.0 + libmatroska v1.6.1

  14. Video

  15. ID : 1

  16. Format : HEVC

  17. Format/Info : High Efficiency Video Coding

  18. Format profile : Main [email protected]@High

  19. HDR format : SMPTE ST 2086, HDR10 compatible

  20. Codec ID : V_MPEGH/ISO/HEVC

  21. Duration : 1 h 40 min

  22. Bit rate : 32.9 Mb/s

  23. Width : 3 840 pixels

  24. Height : 2 076 pixels

  25. Display aspect ratio : 1.85:1

  26. Frame rate mode : Constant

  27. Frame rate : 23.976 (24000/1001/53354) FPS

  28. Color space : YUV

  29. Chroma subsampling : 4:2:0 (Type 2)

  30. Bit depth : 10 bits

  31. Bits/(Pixel*Frame) : 0.172

  32. Stream size : 23.1 GiB (77%)

  33. Title : HEVC, [email protected]@High, 24/1.001 fps @ 32906 kbps

  34. Writing library : x265 3.4+14-gd419c7152:[Windows][GCC 10.2.0][64 bit] 10bit

  35. Encoding settings : cpuid=533541111039 / frame-threads=6 / numa-pools=44,44 / wpp / pmode / pme / no-psnr / no-ssim / log-level=2 / input-csp=1 / input-res=3840x2076 / interlace=0 / total-frames=144600 / level-idc=51 / high-tier=1 / uhd-bd=0 / ref=4 / no-allow-non-conformance / repeat-headers / annexb / no-aud / hrd / info / hash=0 / no-temporal-layers / no-open-gop / min-keyint=24 / keyint=240 / gop-lookahead=0 / bframes=8 / b-adapt=2 / b-pyramid / bframe-bias=0 / rc-lookahead=25 / lookahead-slices=0 / NTMzNTQ=uuDQuD2mJt9fsCf / scenecut=40 / hist-scenecut=0 / radl=0 / no-splice / no-intra-refresh / ctu=64 / min-cu-size=8 / no-rect / no-amp / max-tu-size=32 / tu-inter-depth=3 / tu-intra-depth=3 / limit-tu=4 / rdoq-level=2 / dynamic-rd=0.00 / no-ssim-rd / signhide / no-tskip / nr-intra=0 / nr-inter=0 / no-constrained-intra / no-strong-intra-smoothing / max-merge=4 / limit-refs=1 / limit-modes / me=3 / subme=4 / merange=25 / temporal-mvp / no-frame-dup / no-hme / weightp / weightb / no-analyze-src-pics / deblock=-3:-3 / no-sao / no-sao-non-deblock / rd=6 / selective-sao=0 / no-early-skip / rskip / no-fast-intra / no-tskip-fast / no-cu-lossless / b-intra / no-splitrd-skip / rdpenalty=0 / psy-rd=2.00 / psy-rdoq=1.00 / no-rd-refine / no-lossless / cbqpoffs=0 / crqpoffs=0 / rc=crf / crf=19.5 / qcomp=0.65 / qpstep=4 / stats-write=0 / stats-read=0 / vbv-maxrate=160000 / vbv-bufsize=160000 / vbv-init=0.9 / crf-max=0.0 / crf-min=0.0 / ipratio=1.30 / pbratio=1.20 / aq-mode=3 / aq-strength=0.85 / cutree / zone-count=0 / no-strict-cbr / qg-size=32 / no-rc-grain / qpmax=69 / qpmin=0 / no-const-vbv / sar=1 / overscan=0 / videoformat=5 / range=0 / colorprim=9 / transfer=16 / colormatrix=9 / chromaloc=1 / chromaloc-top=2 / chromaloc-bottom=2 / display-window=0 / master-display=G(13250,34500)B(7500,3000)R(34000,16000)WP(15635,16450)L(40000000,50) / cll=4065,2494 / min-luma=0 / max-luma=1023 / log2-max-poc-lsb=8 / vui-timing-info / vui-hrd-info / slices=1 / no-opt-qp-pps / no-opt-ref-list-length-pps / no-multi-pass-opt-rps / scenecut-bias=0.05 / hist-threshold=0.03 / no-opt-cu-delta-qp / no-aq-motion / hdr10 / hdr10-opt / no-dhdr10-opt / no-idr-recovery-sei / analysis-reuse-level=0 / analysis-save-reuse-level=0 / analysis-load-reuse-level=0 / scale-factor=0 / refine-intra=0 / refine-inter=0 / refine-mv=1 / refine-ctu-distortion=0 / no-limit-sao / ctu-info=0 / no-lowpass-dct / refine-analysis-type=0 / copy-pic=1 / max-ausize-factor=1.0 / no-dynamic-refine / no-single-sei / no-hevc-aq / no-svt / no-field / qp-adaptation-range=1.00 / no-scenecut-aware-qpconformance-window-offsets / right=0 / bottom=0 / NTMzNTQ= / decoder-max-rate=0

  36. Language : English

  37. Default : Yes

  38. Forced : No

  39. Color range : Limited

  40. Color primaries : BT.2020

  41. Transfer characteristics : PQ

  42. Matrix coefficients : BT.2020 non-constant

  43. Mastering display color primaries : Display P3

  44. Mastering display luminance : min: 0.0050 cd/m2, max: 4000 cd/m2

  45. Maximum Content Light Level : 4065 cd/m2

  46. Maximum Frame-Average Light Level : 2494 cd/m2

  47. Audio #1

  48. ID : 2

  49. Format : MLP FBA 16-ch

  50. Format/Info : Meridian Lossless Packing FBA with 16-channel presentation

  51. Commercial name : Dolby TrueHD with Dolby Atmos

  52. Codec ID : A_TRUEHD

  53. Duration : 1 h 40 min

  54. Bit rate mode : Variable

  55. Bit rate : 3 567 kb/s

  56. Maximum bit rate : 5 616 kb/s

  57. Channel(s) : 8 channels

  58. Channel layout : L R C LFE Ls Rs Lb Rb

  59. Sampling rate : 48.0 kHz

  60. Frame rate : 1 200.000 FPS (40 SPF)

  61. Compression mode : Lossless

  62. Stream size : 2.50 GiB (8%)

  63. Title : English Dolby TrueHD 7.1 (Atmos) @ 4207 kbps

  64. Language : English

  65. Default : Yes

  66. Forced : No

  67. Number of dynamic objects : 11

  68. Bed channel count : 1 channel

  69. Bed channel configuration : LFE

  70. Audio #2

  71. ID : 3

  72. Format : AC-3

  73. Format/Info : Audio Coding 3

  74. Commercial name : Dolby Digital

  75. Codec ID : A_AC3

  76. Duration : 1 h 40 min

  77. Bit rate mode : Constant

  78. Bit rate : 640 kb/s

  79. Channel(s) : 6 channels

  80. Channel layout : L R C LFE Ls Rs

  81. Sampling rate : 48.0 kHz

  82. Frame rate : 31.250 FPS (1536 SPF)

  83. Compression mode : Lossy

  84. Stream size : 460 MiB (1%)

  85. Title : English Dolby Digital Audio 5.1 @ 640 kbps

  86. Language : English

  87. Service kind : Complete Main

  88. Default : No

  89. Forced : No

  90. Audio #3

  91. ID : 4

  92. Format : DTS XLL

  93. Format/Info : Digital Theater Systems

  94. Commercial name : DTS-HD Master Audio

  95. Codec ID : A_DTS

  96. Duration : 1 h 40 min

  97. Bit rate mode : Variable

  98. Bit rate : 5 674 kb/s

  99. Channel(s) : 8 channels

  100. Channel layout : C L R LFE Lb Rb Lss Rss

  101. Sampling rate : 48.0 kHz

  102. Frame rate : 93.750 FPS (512 SPF)

  103. Bit depth : 24 bits

  104. Compression mode : Lossless

  105. Stream size : 3.98 GiB (13%)

  106. Title : Mandarin DTS-HD Master Audio 7.1 @ 5674 kbps

  107. Language : Chinese

  108. Default : No

  109. Forced : No

  110. Text #1

  111. ID : 5

  112. Format : PGS

  113. Codec ID : S_HDMV/PGS

  114. Codec ID/Info : Picture based subtitle format used on BDs/HD-DVDs

  115. Duration : 1 h 40 min

  116. Bit rate : 24.1 kb/s

  117. Count of elements : 2292

  118. Stream size : 17.2 MiB (0%)

  119. Title : Eng/SUP SDH

  120. Language : English

  121. Default : No

  122. Forced : No

  123. Text #2

  124. ID : 6

  125. Format : PGS

  126. Codec ID : S_HDMV/PGS

  127. Codec ID/Info : Picture based subtitle format used on BDs/HD-DVDs

  128. Duration : 1 h 31 min

  129. Bit rate : 18.8 kb/s

  130. Count of elements : 1450

  131. Stream size : 12.2 MiB (0%)

  132. Title : Eng/SUP

  133. Language : English

  134. Default : No

  135. Forced : No

  136. Text #3

  137. ID : 7

  138. Format : PGS

  139. Codec ID : S_HDMV/PGS

  140. Codec ID/Info : Picture based subtitle format used on BDs/HD-DVDs

  141. Duration : 1 h 39 min

  142. Bit rate : 14.5 kb/s

  143. Count of elements : 1427

  144. Stream size : 10.4 MiB (0%)

  145. Title : Chs/SUP 原盘简体

  146. Language : Chinese

  147. Default : Yes

  148. Forced : No

  149. Text #4

  150. ID : 8

  151. Format : PGS

  152. Codec ID : S_HDMV/PGS

  153. Codec ID/Info : Picture based subtitle format used on BDs/HD-DVDs

  154. Duration : 1 h 39 min

  155. Bit rate : 14.4 kb/s

  156. Count of elements : 1427

  157. Stream size : 10.3 MiB (0%)

  158. Title : Cht/SUP 原盘繁体

  159. Language : Chinese

  160. Default : No

  161. Forced : No

  162. Text #5

  163. ID : 9

  164. Format : PGS

  165. Codec ID : S_HDMV/PGS

  166. Codec ID/Info : Picture based subtitle format used on BDs/HD-DVDs

  167. Duration : 1 h 32 min

  168. Bit rate : 24.1 kb/s

  169. Count of elements : 1408

  170. Stream size : 16.0 MiB (0%)

  171. Title : Chs/SUP 简英双语

  172. Language : Chinese

  173. Default : No

  174. Forced : No

  175. Text #6

  176. ID : 10

  177. Format : PGS

  178. Codec ID : S_HDMV/PGS

  179. Codec ID/Info : Picture based subtitle format used on BDs/HD-DVDs

  180. Duration : 1 h 32 min

  181. Bit rate : 24.8 kb/s

  182. Count of elements : 1408

  183. Stream size : 16.4 MiB (0%)

  184. Title : Cht/SUP 繁英双语

  185. Language : Chinese

  186. Default : No

  187. Forced : No

  188. Menu

  189. 00:00:00.000 : :第 01 章

  190. 00:08:22.585 : :第 02 章

  191. 00:11:00.410 : :第 03 章

  192. 00:19:09.940 : :第 04 章

  193. 00:23:49.011 : :第 05 章

  194. 00:29:22.469 : :第 06 章

  195. 00:37:51.227 : :第 07 章

  196. 00:41:14.555 : :第 08 章

  197. 00:47:11.829 : :第 09 章

  198. 00:52:16.592 : :第 10 章

  199. 01:00:47.978 : :第 11 章

  200. 01:08:35.695 : :第 12 章

  201. 01:12:05.321 : :第 13 章

  202. 01:18:33.667 : :第 14 章

  203. 01:24:22.349 : :第 15 章

  204. 01:30:16.161 : :第 16 章

  205. 01:35:22.133 : :第 17 章


复制代码



文件下载


除非特别注明,本文『生化危机[共7部合集][国英多音轨/简繁英字幕].Resident.Evil.2002-2017.BluRay.2160p.2Audio.TrueHD.Atmos.7.1.x265.10bit.HDR』来源于互联网机器人自动抓取,非本站原创。 浮游电影网不对本文拥有版权,如有侵犯,请联系邮箱:fuyouu#yandex.com[#换成@]投诉。我们会在15个工作日内删除。 但烦请转载时请标明出处:“本文转载于『浮游电影网』,原文地址:https://www.fuyouu.com/21646.html

评论吧骚年!

发表你的见解   

昵称*

E-mail*(建议输入,以便收到博主回复的提示邮件)

验证码*

您可以使用eMule或eMule Mod(Windows)、aMule(Win、Linux、Mac)等软件下载eD2k链接。。
eMule收藏集(.emulecollection)文件是您选中的所有链接的列表文件。eMule可以直接下载它们。
按住SHIFT键选择可以选中多个选择框。
可用文件名和大小选择器来选择文件。
文件名选择器帮您根据文件名称或后缀来选择文件。不分大小写。
符号使用:
和:空格( )、+
不包含:-
或:|
转义:一对英文引号("");
匹配开头:^
匹配结尾:$
例如:
选中所有名称中包含有“eMule”或“0.49c”字眼,但不包含有“exe”字眼的:emule|0.49c -exe
选中所有名称的开头是“eMule”,结尾是“0.49c”的:^emule 0.49c$
选中所有名称中带有“eMule 0.49c”的(必须是“eMule 0.49c”,中间没有别的字符,不能是“eMule fake 0.49c”),需要转义:"emule 0.49c"
大小选择器帮您根据文件大小选择文件。