当前位置: 首页 >> 国产电影 >> 赤壁[共2部合集][国语音轨/繁英字幕].Red.Cliff.1-2.2008-2009.BluRay.1080p.DTS-HD.MA.7.1.x265.10bit-ALT 27.48GB >> 正文

赤壁[共2部合集][国语音轨/繁英字幕].Red.Cliff.1-2.2008-2009.BluRay.1080p.DTS-HD.MA.7.1.x265.10bit-ALT 27.48GB

2022年04月23日 22:56:15     电影发布:来源于网络     电影分类:国产电影     评论(0)    

赤壁[共2部合集][国语音轨/繁英字幕].Red.Cliff.1 2.2008 2009.BluRay.1080p.DTS HD.MA.7.1.x265.10bit ALT 27.48GB  国产电影  第1张

◎译 名 赤壁(上) / 赤壁 / Red Cliff

◎年 代 2008

◎产 地 中国大陆 / 中国香港 / 中国台湾 / 日本 / 韩国

◎类 别 动作 / 历史 / 战争 / 古装

◎语 言 汉语普通话

◎上映日期 2008-07-10(中国大陆)

◎IMDb链接 https://www.imdb.com/title/tt0425637/

◎豆瓣评分 6.4/10 (183428人评价)

◎豆瓣链接 https://movie.douban.com/subject/1465829/

◎片 长 146分钟

◎导 演 吴宇森 John Woo (id:1027853)

◎编 剧 吴宇森 John Woo (id:1027853)

陈汗 Khan Chan (id:1319393)

郭筝 Cheng Kuo (id:1348771)

盛和煜 Heyu Sheng (id:1314847)

罗贯中 Guanzhong Luo (id:1275985)

王蕙玲 Hui-Ling Wang (id:1300390)

邹静之 Jingzhi Zou (id:1276029)

芦苇 Wei Lu (id:1275557)

◎演 员 梁朝伟 Tony Leung Chiu Wai (id:1115918)

金城武 Takeshi Kaneshiro (id:1027883)

张丰毅 Fengyi Zhang (id:1050265)

张震 Chen Chang (id:1077991)

胡军 Jun Hu (id:1032540)

林志玲 Chiling Lin (id:1036839)

尤勇智 Yongzhi You (id:1301518)

中村狮童 Shido Nakamura (id:1050014)

宋佳 Jia Song (id:1042341)

臧金生 Jinsheng Zang (id:1045901)

巴森 Mijid Baasanjav (id:1320883)

侯勇 Yong Hou (id:1274228)

王庆祥 Qingxiang Wang (id:1300406)

马精武 Jingwu Ma (id:1313092)

佟大为 Dawei Tong (id:1009179)

崔浩博 Haobo Cui (id:1349937)

叶华 Hua Ye (id:1414121)

张山 Shan Zhang (id:1313545)

姜彤 Tong Jiang (id:1318644)

王宁 Ning Wang (id:1329167)

宋淑鑫 Shu Xin Song (id:1383645)

张贵博 Guibo Zhang (id:1383646)

魏国庆 Guoqing Wei (id:1383647)

胡晓光 Xiaoguang Hu (id:1345923)

何音 Yin He (id:1315278)

谢钢 Gang Xie (id:1313180)

王伟 Wei Wang (id:1313929)

张大星 Daxing Zhang (id:1330752)

许朋乐 Pengle Xu (id:1400935)

叶如芬 Ju-feng Yeh (id:1335030)

韩三平 Sanping Han (id:1274843)

任仲伦 Zhonglun Ren (id:1333045)

于冬 Dong Yu (id:1317865)

张家振 Terence Chang (id:1320492)

杨雪仪 Cher Yeung (id:1316543)

陆红实 Hongshi Lu (id:1399846)

岩代太郎 Tar? Iwashiro (id:1287445)

张黎 Li Zhang (id:1301692)

纪建民 Jianmin Ji (id:1424079)

吕乐 Yue Lv (id:1274303)

徐伟 Wei Xu (id:1332058)

黄伟 Wai Wong (id:1380247)

王天麟 Tianlin Wang (id:1351209)

杨红雨 Hongyu Yang (id:1301417)

林安儿 Angie Lam (id:1038152)

黄宏显 Eddy Wong (id:1302455)

星汉 (id:1391218)

叶锦添 Timmy Yip (id:1301493)

刘绍春 Shaochun Liu (id:1384980)

杨占家 Zhanjia Yang (id:1301416)

叶锦添 Timmy Yip (id:1301493)

梁柏坚 Patrick Leung (id:1275513)

张进战 Jinzhan Zhang (id:1326433)

耶云哉治 Saiji Yakumo (id:1344634)

赵梓宇 Pitt Zhao (id:1396634)

杜军 Jun Du (id:1350227)

元奎 Corey Yuen (id:1289150)

任永强 Yongqiang Ren (id:1318834)

吕赢 Ying Lü (id:1386811)

周惠坤 Thomas Chow (id:1330717)

库尔班江·吐尔达洪 (id:1423216)

黄蕾蕾 Leilei Huang (id:1367651)

龙筱竹 Xiaozhu Long (id:1389654)

涂灏 Hao Tu (id:1311569)

温波 Bo Wen (id:1330581)

斯科特·查尔斯·斯图瓦特 Scott Charles Stewart (id:1327068)

林迪安 Dion Lam (id:1289289)

石占杰 Zhanjie Shi (id:1374645)

◎简 介

东汉末年,汉室幼主难当大局,朝廷中曹操(张丰毅 饰)独断专行,挟天子以令诸侯,大夫孔融(王庆祥 饰)誓死直谏,结果落得给曹兵祭旗。原来曹操决心已定,欲剿灭刘备(尤勇 饰)、孙权(张震 饰)等江南反贼,一统天下。长坂坡一战后,刘备在军师诸葛亮(金城武 饰)辅佐之下,率结义 弟兄关羽、张飞(臧金生 饰)、赵云(胡军 饰)等,带领难民且战且退,最后只得求助于江东孙权。对于抗曹之事,孙权亦正犹豫不决。但大都督周瑜(梁朝伟 饰)与其妹孙尚香均力挺其出战,眼看大兵压境,孙刘联盟方现雏形。诸葛亮观周瑜严明治军,旗下大将甘兴(中村狮童 饰)身先士卒,颇感欣慰。此刻突然传来军中箭弩严重缺乏,孔明不顾鲁肃(侯勇 饰)好心劝阻,甘愿立下军令状,谋求箭弩……

◎获奖情况 (共31项)

第45届台北金马影展 (2008)

金马奖 最佳男配角(提名)

└──胡军 (id:1032540)

金马奖 最佳美术设计(提名)

└──叶锦添 (id:1301493)

金马奖 最佳造型设计(提名)

└──叶锦添 (id:1301493)

金马奖 最佳视觉效果(提名)

└──克雷格·海斯 (id:1286277)

第28届香港电影金像奖 (2009)

最佳电影(提名)

最佳导演(提名)

└──吴宇森 (id:1027853)

最佳男主角(提名)

└──梁朝伟 (id:1115918)

最佳男配角(提名)

└──张丰毅 (id:1050265)

最佳女配角(提名)

最佳新演员(提名)

└──林志玲 (id:1036839)

最佳摄影(提名)

最佳剪接(提名)

最佳美术指导

└──叶锦添 (id:1301493)

最佳服装造型设计

└──叶锦添 (id:1301493)

最佳动作设计(提名)

└──元奎 (id:1289150)

最佳原创电影音乐

└──岩代太郎 (id:1287445)

最佳原创电影歌曲(提名)

最佳音响效果

最佳视觉效果

└──克雷格·海斯 (id:1286277)

第32届日本电影学院奖 (2009)

最佳外语片(提名)

第27届中国电影金鸡奖 (2009)

最佳摄影(提名)

第13届中国电影华表奖 (2009)

优秀境外华裔导演奖

└──吴宇森 (id:1027853)

优秀境外华裔女演员奖(提名)

└──林志玲 (id:1036839)

优秀电影技术奖

优秀合拍片奖

第3届亚洲电影大奖 (2009)

最佳电影(提名)

最佳导演(提名)

└──吴宇森 (id:1027853)

最佳视觉效果

└──克雷格·海斯 (id:1286277)

第8届华盛顿影评人协会奖 (2009)

最佳外语片(提名)

第14届圣地亚哥影评人协会奖 (2009)

最佳外语片(提名)

第22届芝加哥影评人协会奖 (2009)

最佳外语片(提名)

  1. 合集文件列表:

  2. 1.Red.Cliff.1.2008.BluRay.1080p.DTS-HD.MA.7.1.x265.10bit-ALT.mkv 14.57GB

  3. 2.Red.Cliff.2.2009.BluRay.1080p.DTS-HD.MA.7.1.x265.10bit-ALT.mkv 12.90GB


复制代码

  1. ##### MediaInfo ######

  2. General

  3. Unique ID : 80522609967712644305501324108080984414 (0x3C94172FD69513BE40D58E0B9C25B15E)

  4. Complete name : Red.Cliff.1.2008.BluRay.1080p.DTS-HD.MA.7.1.x265.10bit-BeiTai.mkv

  5. Format : Matroska

  6. Format version : Version 4

  7. File size : 14.6 GiB

  8. Duration : 2 h 25 min

  9. Overall bit rate mode : Variable

  10. Overall bit rate : 14.4 Mb/s

  11. Encoded date : UTC 2020-04-06 03:24:02

  12. Writing application : mkvmerge v45.0.0 ('Heaven in Pennies') 64-bit

  13. Writing library : libebml v1.3.10 + libmatroska v1.5.2

  14. Video

  15. ID : 1

  16. Format : HEVC

  17. Format/Info : High Efficiency Video Coding

  18. Format profile : Main [email protected]@High

  19. Codec ID : V_MPEGH/ISO/HEVC

  20. Duration : 2 h 25 min

  21. Bit rate : 11.4 Mb/s

  22. Width : 1 920 pixels

  23. Height : 1 080 pixels

  24. Display aspect ratio : 16:9

  25. Frame rate mode : Constant

  26. Frame rate : 24.000 FPS

  27. Color space : YUV

  28. Chroma subsampling : 4:2:0

  29. Bit depth : 10 bits

  30. Bits/(Pixel*Frame) : 0.229

  31. Stream size : 11.5 GiB (79%)

  32. Title : HEVC, [email protected]@High, 24 fps @ 11376 kbps

  33. Writing library : x265 3.3+1-g396395b2b:[Windows][GCC 9.2.0][64 bit] 10bit

  34. Encoding settings : cpuid=533541111039 / frame-threads=5 / numa-pools=44,44 / wpp / pmode / pme / no-psnr / no-ssim / log-level=2 / input-csp=1 / input-res=1920x1080 / interlace=0 / total-frames=209245 / level-idc=51 / high-tier=1 / uhd-bd=0 / ref=5 / no-allow-non-conformance / no-repeat-headers / annexb / no-aud / no-hrd / info / hash=0 / no-temporal-layers / open-gop / min-keyint=24 / keyint=240 / gop-lookahead=0 / bframes=6 / b-adapt=2 / b-pyramid / bframe-bias=0 / rc-lookahead=40 / lookahead-slices=0 / NTMzNTQ=uuDQuD2mJt9fsCf / scenecut=40 / hist-scenecut=0 / radl=0 / no-splice / no-intra-refresh / ctu=32 / min-cu-size=8 / no-rect / no-amp / max-tu-size=32 / tu-inter-depth=3 / tu-intra-depth=3 / limit-tu=4 / rdoq-level=2 / dynamic-rd=0.00 / no-ssim-rd / signhide / no-tskip / nr-intra=0 / nr-inter=0 / no-constrained-intra / no-strong-intra-smoothing / max-merge=4 / limit-refs=1 / limit-modes / me=3 / subme=4 / merange=25 / temporal-mvp / no-frame-dup / no-hme / weightp / weightb / no-analyze-src-pics / deblock=-3:-3 / no-sao / no-sao-non-deblock / rd=6 / selective-sao=0 / no-early-skip / rskip / no-fast-intra / no-tskip-fast / no-cu-lossless / b-intra / no-splitrd-skip / rdpenalty=0 / psy-rd=2.00 / psy-rdoq=1.00 / no-rd-refine / no-lossless / cbqpoffs=0 / crqpoffs=0 / rc=crf / crf=19.5 / qcomp=0.65 / qpstep=4 / stats-write=0 / stats-read=0 / vbv-maxrate=80000 / vbv-bufsize=80000 / vbv-init=0.9 / crf-max=0.0 / crf-min=0.0 / ipratio=1.40 / pbratio=1.30 / aq-mode=2 / aq-strength=0.85 / cutree / zone-count=0 / no-strict-cbr / qg-size=32 / no-rc-grain / qpmax=69 / qpmin=0 / no-const-vbv / sar=1 / overscan=0 / videoformat=5 / range=0 / colorprim=1 / transfer=1 / colormatrix=1 / chromaloc=0 / display-window=0 / cll=0,0 / min-luma=0 / max-luma=1023 / log2-max-poc-lsb=8 / vui-timing-info / vui-hrd-info / slices=1 / no-opt-qp-pps / no-opt-ref-list-length-pps / no-multi-pass-opt-rps / scenecut-bias=0.05 / hist-threshold=0.01 / no-opt-cu-delta-qp / no-aq-motion / no-hdr10 / no-hdr10-opt / no-dhdr10-opt / no-idr-recovery-sei / analysis-reuse-level=0 / analysis-save-reuse-level=0 / analysis-load-reuse-level=0 / scale-factor=0 / refine-intra=0 / refine-inter=0 / refine-mv=1 / refine-ctu-distortion=0 / no-limit-sao / ctu-info=0 / no-lowpass-dct / refine-analysis-type=0 / copy-pic=1 / max-ausize-factor=1.0 / no-dynamic-refine / no-single-sei / no-hevc-aq / no-svt / no-field / qp-adaptation-range=1.00 / no-scenecut-aware-qpconformance-window-offsets / right=0 / bottom=0 / NTMzNTQ=

  35. Language : English

  36. Default : Yes

  37. Forced : No

  38. Color range : Limited

  39. Color primaries : BT.709

  40. Transfer characteristics : BT.709

  41. Matrix coefficients : BT.709

  42. Audio #1

  43. ID : 2

  44. Format : DTS XLL

  45. Format/Info : Digital Theater Systems

  46. Commercial name : DTS-HD Master Audio

  47. Codec ID : A_DTS

  48. Duration : 2 h 25 min

  49. Bit rate mode : Variable

  50. Bit rate : 2 477 kb/s

  51. Channel(s) : 8 channels

  52. Channel layout : C L R LFE Lb Rb Lss Rss

  53. Sampling rate : 48.0 kHz

  54. Frame rate : 93.750 FPS (512 SPF)

  55. Bit depth : 16 bits

  56. Compression mode : Lossless

  57. Stream size : 2.51 GiB (17%)

  58. Title : Mandarin DTS-HD Master Audio 7.1 @ 2477 kbps

  59. Language : Chinese

  60. Default : Yes

  61. Forced : No

  62. Audio #2

  63. ID : 3

  64. Format : AC-3

  65. Format/Info : Audio Coding 3

  66. Commercial name : Dolby Digital

  67. Codec ID : A_AC3

  68. Duration : 2 h 25 min

  69. Bit rate mode : Constant

  70. Bit rate : 448 kb/s

  71. Channel(s) : 6 channels

  72. Channel layout : L R C LFE Ls Rs

  73. Sampling rate : 48.0 kHz

  74. Frame rate : 31.250 FPS (1536 SPF)

  75. Compression mode : Lossy

  76. Stream size : 466 MiB (3%)

  77. Title : Mandarin Dolby Digital Audio 5.1 @ 448 kbps Commentary

  78. Language : Chinese

  79. Service kind : Complete Main

  80. Default : No

  81. Forced : No

  82. Text #1

  83. ID : 4

  84. Format : PGS

  85. Codec ID : S_HDMV/PGS

  86. Codec ID/Info : Picture based subtitle format used on BDs/HD-DVDs

  87. Duration : 2 h 20 min

  88. Bit rate : 26.0 kb/s

  89. Count of elements : 2462

  90. Stream size : 26.2 MiB (0%)

  91. Title : Cht/SUP 繁体

  92. Language : Chinese

  93. Default : Yes

  94. Forced : No

  95. Text #2

  96. ID : 5

  97. Format : PGS

  98. Codec ID : S_HDMV/PGS

  99. Codec ID/Info : Picture based subtitle format used on BDs/HD-DVDs

  100. Duration : 2 h 20 min

  101. Bit rate : 29.0 kb/s

  102. Count of elements : 2460

  103. Stream size : 29.3 MiB (0%)

  104. Title : Eng/SUP

  105. Language : English

  106. Default : No

  107. Forced : No

  108. Menu

  109. 00:00:00.000 : en:第 01 章

  110. 00:02:46.792 : en:第 02 章

  111. 00:13:40.167 : en:第 03 章

  112. 00:23:41.208 : en:第 04 章

  113. 00:32:14.000 : en:第 05 章

  114. 00:43:44.042 : en:第 06 章

  115. 00:53:45.833 : en:第 07 章

  116. 01:03:46.458 : en:第 08 章

  117. 01:13:23.333 : en:第 09 章

  118. 01:23:29.875 : en:第 10 章

  119. 01:32:59.917 : en:第 11 章

  120. 01:43:10.625 : en:第 12 章

  121. 01:53:54.542 : en:第 13 章

  122. 02:06:24.875 : en:第 14 章

  123. 02:18:13.625 : en:第 15 章


复制代码



文件下载


除非特别注明,本文『赤壁[共2部合集][国语音轨/繁英字幕].Red.Cliff.1-2.2008-2009.BluRay.1080p.DTS-HD.MA.7.1.x265.10bit-ALT 27.48GB』来源于互联网机器人自动抓取,非本站原创。 浮游电影网不对本文拥有版权,如有侵犯,请联系邮箱:fuyouu#yandex.com[#换成@]投诉。我们会在15个工作日内删除。 但烦请转载时请标明出处:“本文转载于『浮游电影网』,原文地址:https://www.fuyouu.com/21645.html

评论吧骚年!

发表你的见解   

昵称*

E-mail*(建议输入,以便收到博主回复的提示邮件)

验证码*

您可以使用eMule或eMule Mod(Windows)、aMule(Win、Linux、Mac)等软件下载eD2k链接。。
eMule收藏集(.emulecollection)文件是您选中的所有链接的列表文件。eMule可以直接下载它们。
按住SHIFT键选择可以选中多个选择框。
可用文件名和大小选择器来选择文件。
文件名选择器帮您根据文件名称或后缀来选择文件。不分大小写。
符号使用:
和:空格( )、+
不包含:-
或:|
转义:一对英文引号("");
匹配开头:^
匹配结尾:$
例如:
选中所有名称中包含有“eMule”或“0.49c”字眼,但不包含有“exe”字眼的:emule|0.49c -exe
选中所有名称的开头是“eMule”,结尾是“0.49c”的:^emule 0.49c$
选中所有名称中带有“eMule 0.49c”的(必须是“eMule 0.49c”,中间没有别的字符,不能是“eMule fake 0.49c”),需要转义:"emule 0.49c"
大小选择器帮您根据文件大小选择文件。