当前位置: 首页 >> 港台电影 >> 人造怪物[简繁字幕].Monsters.of.Man.2020.2160p.HDR.UHD.BluRay.DTS-HD.MA.7.1.x265-10bit 14.87 >> 正文

人造怪物[简繁字幕].Monsters.of.Man.2020.2160p.HDR.UHD.BluRay.DTS-HD.MA.7.1.x265-10bit 14.87

2022年04月23日 22:25:37     电影发布:来源于网络     电影分类:港台电影     评论(0)    

人造怪物[简繁字幕].Monsters.of.Man.2020.2160p.HDR.UHD.BluRay.DTS HD.MA.7.1.x265 10bit 14.87  港台电影  第1张

◎译 名 人造怪物 / 猎杀战场(台)

◎片 名 Monsters of Man

◎年 代 2020

◎产 地 澳大利亚

◎类 别 动作 / 科幻 / 惊悚

◎语 言 英语

◎上映日期 2020-11-19(悉尼科幻电影节)

◎IMDb链接 https://www.imdb.com/title/tt6456326/

◎豆瓣评分 5.8/10 (3361人评价)

◎豆瓣链接 https://movie.douban.com/subject/35151580/

◎片 长 131分钟

◎导 演 马克·托亚 Mark Toia (id:1443012)

◎编 剧 马克·托亚 Mark Toia (id:1443012)

◎演 员 尼尔·麦克唐纳 Neal McDonough (id:1031878)

布雷特·特雷诺 Brett Tutor (id:1448894)

乔斯·罗赛特 Jose Rosete (id:1028053)

大卫·哈弗蒂 David Haverty (id:1448896)

保罗·哈帕尼米 Paul Haapaniemi (id:1448895)

凯利·陈 Kayli Tran (id:1423781)

杰西卡·布莱克莫尔 Jessica Blackmore (id:1404078)

乔蒂·杜伦纳 Jordy Tulleners (id:1427490)

塔蒂安娜·马尔贾诺维奇 Tatjana Marjanovic (id:1448905)

康拉德·K·普拉特 Conrad K. Pratt (id:1357370)

大卫·萨马廷 David Samartin (id:1448904)

泰勒·利·爱德华兹 Taylor Leigh Edwards (id:1448899)

Mike Goldman Mike Goldman (id:1164259)

马克·托亚 Mark Toia (id:1443012)

克里斯托弗·埃尔维斯 Christopher Elves (id:1310609)

马克·托亚 Mark Toia (id:1443012)

◎简 介

一家机器人公司与一名腐败的中情局特工联手,试图为自己定位,以赢得一份利润丰厚的军事合同。他们非法空投了4个机器人原型到臭名昭著的老挝、柬埔寨和泰国之间的金三角地带,对毫无戒心的毒枭进行现场实地测试,这是全世界永远不会错过的。其中一个机器人在空投中受损,机器人技术团队在它变得自知之明时失去了对它的控制,成为一个势不可挡的杀人机器。

  1. ##### MediaInfo ######

  2. General

  3. Unique ID : 66382570410389877621320437005479660480 (0x31F0D1695B7EC9E7F1FF49AAA9354BC0)

  4. Complete name : Monsters.of.Man.2020.2160p.HDR.UHD.BluRay.DTS-HD.MA.7.1.x265-10bit-HDS.mkv

  5. Format : Matroska

  6. Format version : Version 4

  7. File size : 14.9 GiB

  8. Duration : 2 h 11 min

  9. Overall bit rate mode : Variable

  10. Overall bit rate : 16.1 Mb/s

  11. Movie name : Monsters of Man 2020 2160p HDR UHD BluRay DTS-HD MA 7.1 x265-10bit-HDS

  12. Encoded date : UTC 2022-04-22 02:56:57

  13. Writing application : mkvmerge v67.0.0 ('Under Stars') 64-bit

  14. Writing library : libebml v1.4.2 + libmatroska v1.6.4

  15. Video

  16. ID : 1

  17. Format : HEVC

  18. Format/Info : High Efficiency Video Coding

  19. Format profile : Main [email protected]@High

  20. HDR format : SMPTE ST 2086, HDR10 compatible

  21. Codec ID : V_MPEGH/ISO/HEVC

  22. Duration : 2 h 11 min

  23. Bit rate : 10.1 Mb/s

  24. Width : 3 840 pixels

  25. Height : 1 616 pixels

  26. Display aspect ratio : 2.40:1

  27. Frame rate mode : Constant

  28. Frame rate : 24.000 FPS

  29. Color space : YUV

  30. Chroma subsampling : 4:2:0

  31. Bit depth : 10 bits

  32. Bits/(Pixel*Frame) : 0.068

  33. Stream size : 9.27 GiB (62%)

  34. Title : @HDSky

  35. Writing library : x265 - H.265/HEVC codec

  36. Default : Yes

  37. Forced : No

  38. Color range : Limited

  39. Color primaries : BT.2020

  40. Transfer characteristics : PQ

  41. Matrix coefficients : BT.2020 non-constant

  42. Mastering display color primaries : Display P3

  43. Mastering display luminance : min: 0.0010 cd/m2, max: 1000 cd/m2

  44. Maximum Content Light Level : 996 cd/m2

  45. Maximum Frame-Average Light Level : 269 cd/m2

  46. Audio

  47. ID : 2

  48. Format : DTS XLL

  49. Format/Info : Digital Theater Systems

  50. Commercial name : DTS-HD Master Audio

  51. Codec ID : A_DTS

  52. Duration : 2 h 11 min

  53. Bit rate mode : Variable

  54. Bit rate : 6 005 kb/s

  55. Channel(s) : 8 channels

  56. Channel layout : C L R LFE Lb Rb Lss Rss

  57. Sampling rate : 48.0 kHz

  58. Frame rate : 93.750 FPS (512 SPF)

  59. Bit depth : 24 bits

  60. Compression mode : Lossless

  61. Stream size : 5.53 GiB (37%)

  62. Title : English

  63. Language : English

  64. Default : Yes

  65. Forced : No

  66. Text #1

  67. ID : 3

  68. Format : PGS

  69. Muxing mode : zlib

  70. Codec ID : S_HDMV/PGS

  71. Codec ID/Info : Picture based subtitle format used on BDs/HD-DVDs

  72. Duration : 2 h 4 min

  73. Bit rate : 28.4 kb/s

  74. Count of elements : 2267

  75. Stream size : 25.4 MiB (0%)

  76. Title : CHS

  77. Language : Chinese

  78. Default : Yes

  79. Forced : No

  80. Text #2

  81. ID : 4

  82. Format : PGS

  83. Muxing mode : zlib

  84. Codec ID : S_HDMV/PGS

  85. Codec ID/Info : Picture based subtitle format used on BDs/HD-DVDs

  86. Duration : 2 h 4 min

  87. Bit rate : 29.5 kb/s

  88. Count of elements : 2267

  89. Stream size : 26.4 MiB (0%)

  90. Title : CHT

  91. Language : Chinese

  92. Default : Yes

  93. Forced : No

  94. Text #3

  95. ID : 5

  96. Format : PGS

  97. Muxing mode : zlib

  98. Codec ID : S_HDMV/PGS

  99. Codec ID/Info : Picture based subtitle format used on BDs/HD-DVDs

  100. Duration : 2 h 4 min

  101. Bit rate : 37.2 kb/s

  102. Count of elements : 2268

  103. Stream size : 33.3 MiB (0%)

  104. Title : CHS&ENG

  105. Language : Chinese

  106. Default : Yes

  107. Forced : No

  108. Text #4

  109. ID : 6

  110. Format : PGS

  111. Muxing mode : zlib

  112. Codec ID : S_HDMV/PGS

  113. Codec ID/Info : Picture based subtitle format used on BDs/HD-DVDs

  114. Duration : 2 h 4 min

  115. Bit rate : 38.3 kb/s

  116. Count of elements : 2268

  117. Stream size : 34.2 MiB (0%)

  118. Title : CHT&ENG

  119. Language : Chinese

  120. Default : Yes

  121. Forced : No

  122. Menu

  123. 00:00:00.000 : en:第 01 章

  124. 00:15:23.042 : en:第 02 章

  125. 00:24:40.042 : en:第 03 章

  126. 00:34:05.458 : en:第 04 章

  127. 00:42:30.458 : en:第 05 章

  128. 00:50:46.875 : en:第 06 章

  129. 01:03:32.375 : en:第 07 章

  130. 01:13:45.542 : en:第 08 章

  131. 01:26:40.625 : en:第 09 章

  132. 01:39:59.250 : en:第 10 章

  133. 01:51:24.500 : en:第 11 章

  134. 02:06:16.667 : en:第 12 章


复制代码



文件下载


除非特别注明,本文『人造怪物[简繁字幕].Monsters.of.Man.2020.2160p.HDR.UHD.BluRay.DTS-HD.MA.7.1.x265-10bit 14.87』来源于互联网机器人自动抓取,非本站原创。 浮游电影网不对本文拥有版权,如有侵犯,请联系邮箱:fuyouu#yandex.com[#换成@]投诉。我们会在15个工作日内删除。 但烦请转载时请标明出处:“本文转载于『浮游电影网』,原文地址:https://www.fuyouu.com/21634.html

评论吧骚年!

发表你的见解   

昵称*

E-mail*(建议输入,以便收到博主回复的提示邮件)

验证码*

您可以使用eMule或eMule Mod(Windows)、aMule(Win、Linux、Mac)等软件下载eD2k链接。。
eMule收藏集(.emulecollection)文件是您选中的所有链接的列表文件。eMule可以直接下载它们。
按住SHIFT键选择可以选中多个选择框。
可用文件名和大小选择器来选择文件。
文件名选择器帮您根据文件名称或后缀来选择文件。不分大小写。
符号使用:
和:空格( )、+
不包含:-
或:|
转义:一对英文引号("");
匹配开头:^
匹配结尾:$
例如:
选中所有名称中包含有“eMule”或“0.49c”字眼,但不包含有“exe”字眼的:emule|0.49c -exe
选中所有名称的开头是“eMule”,结尾是“0.49c”的:^emule 0.49c$
选中所有名称中带有“eMule 0.49c”的(必须是“eMule 0.49c”,中间没有别的字符,不能是“eMule fake 0.49c”),需要转义:"emule 0.49c"
大小选择器帮您根据文件大小选择文件。