当前位置: 首页 >> 港台电影 >> 赢钱专家[国语配音/中文字幕][email protected] 2.23GB >> 正文

赢钱专家[国语配音/中文字幕][email protected] 2.23GB

2022年04月23日 22:24:41     电影发布:来源于网络     电影分类:港台电影     评论(0)    

赢钱专家[国语配音/中文字幕].Money.Maker.1991.WEB DL.1080p.H264.AAC HOMEWEB@BBQDDQ.COM 2.23GB  港台电影  第1张

◎译 名 赢钱专家 / 花心赌圣 / Money Maker

◎片 名 贏錢專家

◎年 代 1991

◎产 地 中国香港

◎类 别 喜剧

◎语 言 粤语

◎上映日期 1991-05-25(中国香港)

◎IMDb链接 https://www.imdb.com/title/tt0103309/

◎豆瓣评分 6.1/10 (2802人评价)

◎豆瓣链接 https://movie.douban.com/subject/1308274/

◎片 长 100分钟

◎导 演 王晶 Jing Wong (id:1274331)

◎编 剧 王晶 Jing Wong (id:1274331)

◎演 员 王晶 Jing Wong (id:1274331)

吴君如 Sandra Ng (id:1127819)

陈百祥 Pak-cheung Chan (id:1070608)

邱淑贞 Chingmy Yau (id:1048296)

吴孟达 Man Tat Ng (id:1016771)

植敬雯 King-Man Chik (id:1315881)

林正英 Ching-Ying Lam (id:1016823)

黄靖华 Sherman Wong (id:1336291)

程东 John Ching Tung (id:1316720)

田俊 James Tien Chun (id:1352930)

简慧真 Regina Kent (id:1014977)

曹查理 Charlie Cho (id:1275320)

张德荣 Tak Wing Cheung (id:1417552)

◎简 介

祥(王晶 饰)天赋异品,和他的二叔(林正英 饰)、三叔(吴孟达 饰)都是茅山赌术弟子,祥和三叔丈着有点小聪明开了一间赌博公司,赌徒有什么疑难问题都可以上来请教。香港女赌神高少少(吴君如 饰)被泰国赌王乃猜与其手下女巫合谋害死,化成冤魂。高少少的冤魂不堪枉死,前来找祥替她报仇,祥抵不住她的缠绕,答应替她报仇。高少少的妹妹高豆豆(邱淑贞 饰)也因心想为姐姐报仇而结识了祥,两人心生倾慕。

二叔可怜高少少惨死,也出山和祥、三叔一起挑战泰国赌王乃猜,茅山赌术和泰国巫术之战打响了。

  1. ##### MediaInfo ######

  2. General

  3. Complete name : Money Maker 1991 WEB-DL 1080p H264 AAC-Dave.mp4

  4. Format : MPEG-4

  5. Format profile : Base Media

  6. Codec ID : isom (isom/iso2/avc1/mp41)

  7. File size : 2.22 GiB

  8. Duration : 1 h 35 min

  9. Overall bit rate mode : Variable

  10. Overall bit rate : 3 327 kb/s

  11. Writing application : Lavf59.16.100

  12. Video

  13. ID : 1

  14. Format : AVC

  15. Format/Info : Advanced Video Codec

  16. Format profile : [email protected]

  17. Format settings : CABAC / 4 Ref Frames

  18. Format settings, CABAC : Yes

  19. Format settings, Reference frames : 4 frames

  20. Codec ID : avc1

  21. Codec ID/Info : Advanced Video Coding

  22. Duration : 1 h 35 min

  23. Source duration : 1 h 35 min

  24. Bit rate : 2 931 kb/s

  25. Maximum bit rate : 3 067 kb/s

  26. Width : 1 920 pixels

  27. Height : 1 080 pixels

  28. Display aspect ratio : 16:9

  29. Frame rate mode : Constant

  30. Frame rate : 25.000 FPS

  31. Color space : YUV

  32. Chroma subsampling : 4:2:0

  33. Bit depth : 8 bits

  34. Scan type : Progressive

  35. Bits/(Pixel*Frame) : 0.057

  36. Stream size : 1.96 GiB (88%)

  37. Source stream size : 2.05 GiB (92%)

  38. Color range : Limited

  39. Color primaries : BT.709

  40. Transfer characteristics : BT.709

  41. Matrix coefficients : BT.709

  42. Codec configuration box : avcC

  43. Audio

  44. ID : 2

  45. Format : AAC LC

  46. Format/Info : Advanced Audio Codec Low Complexity

  47. Codec ID : mp4a-40-2

  48. Duration : 1 h 35 min

  49. Bit rate mode : Variable

  50. Bit rate : 256 kb/s / 256 kb/s

  51. Channel(s) : 2 channels

  52. Channel layout : L R

  53. Sampling rate : 44.1 kHz

  54. Frame rate : 43.066 FPS (1024 SPF)

  55. Compression mode : Lossy

  56. Stream size : 174 MiB (8%)

  57. Default : Yes

  58. Alternate group : 1


复制代码



文件下载


除非特别注明,本文『赢钱专家[国语配音/中文字幕][email protected] 2.23GB』来源于互联网机器人自动抓取,非本站原创。 浮游电影网不对本文拥有版权,如有侵犯,请联系邮箱:fuyouu#yandex.com[#换成@]投诉。我们会在15个工作日内删除。 但烦请转载时请标明出处:“本文转载于『浮游电影网』,原文地址:https://www.fuyouu.com/21633.html

评论吧骚年!

发表你的见解   

昵称*

E-mail*(建议输入,以便收到博主回复的提示邮件)

验证码*

您可以使用eMule或eMule Mod(Windows)、aMule(Win、Linux、Mac)等软件下载eD2k链接。。
eMule收藏集(.emulecollection)文件是您选中的所有链接的列表文件。eMule可以直接下载它们。
按住SHIFT键选择可以选中多个选择框。
可用文件名和大小选择器来选择文件。
文件名选择器帮您根据文件名称或后缀来选择文件。不分大小写。
符号使用:
和:空格( )、+
不包含:-
或:|
转义:一对英文引号("");
匹配开头:^
匹配结尾:$
例如:
选中所有名称中包含有“eMule”或“0.49c”字眼,但不包含有“exe”字眼的:emule|0.49c -exe
选中所有名称的开头是“eMule”,结尾是“0.49c”的:^emule 0.49c$
选中所有名称中带有“eMule 0.49c”的(必须是“eMule 0.49c”,中间没有别的字符,不能是“eMule fake 0.49c”),需要转义:"emule 0.49c"
大小选择器帮您根据文件大小选择文件。