当前位置: 首页 >> 港台电影 >> 前世情人的情人[国语音轨/中英字幕].Like.Father.Like.Daughter.2019.1080p.WEB-DL.AAC2.0.H.264 0.62GB >> 正文

前世情人的情人[国语音轨/中英字幕].Like.Father.Like.Daughter.2019.1080p.WEB-DL.AAC2.0.H.264 0.62GB

2022年04月23日 22:23:26     电影发布:来源于网络     电影分类:港台电影     评论(0)    

前世情人的情人[国语音轨/中英字幕].Like.Father.Like.Daughter.2019.1080p.WEB DL.AAC2.0.H.264 0.62GB  港台电影  第1张

◎译 名 前世情人的情人 / Like Father, Like Daughter

◎年 代 2019

◎产 地 中国台湾

◎类 别 剧情 / 短片 / 同性

◎语 言 汉语普通话

◎上映日期 2019-11(台北金马国际影展)

◎IMDb链接 https://www.imdb.com/title//

◎豆瓣链接 https://movie.douban.com/subject/34861205/

◎片 长 21分钟

◎演 员 吴朋奉 Pong Fong Wu (id:1348865)

江宜蓉 Cammy Chiang (id:1377289)

林映唯 Patricia Lin (id:1354636)

◎简 介

曾捍衛自由戀愛的兒子文德,現在成了父親。擋不住三姑六婆的糾纏,他被 逼得上門關心女兒的情事,卻意外遇上同婚專法通過的日子。家中女兒和女 友正為求婚成功而慶祝,文德該如何面對新世代愛情觀的挑戰?

  1. ##### MediaInfo ######

  2. General

  3. Unique ID : 194258861481724708449404328020866650933 (0x9224E5550D02CC32138E780E1D625335)

  4. Complete name : Like.Father.Like.Daughter.2019.1080p.WEB-DL.AAC2.0.H.264-CHDWEB.mkv

  5. Format : Matroska

  6. Format version : Version 4

  7. File size : 634 MiB

  8. Duration : 20 min 40 s

  9. Overall bit rate : 4 286 kb/s

  10. Encoded date : UTC 2022-04-22 14:00:56

  11. Writing application : mkvmerge v63.0.0 ('Everything') 64-bit

  12. Writing library : libebml v1.4.2 + libmatroska v1.6.4

  13. Video

  14. ID : 1

  15. Format : AVC

  16. Format/Info : Advanced Video Codec

  17. Format profile : [email protected]

  18. Format settings : CABAC / 5 Ref Frames

  19. Format settings, CABAC : Yes

  20. Format settings, Reference frames : 5 frames

  21. Codec ID : V_MPEG4/ISO/AVC

  22. Duration : 20 min 40 s

  23. Bit rate : 4 158 kb/s

  24. Width : 1 920 pixels

  25. Height : 1 080 pixels

  26. Display aspect ratio : 16:9

  27. Frame rate mode : Constant

  28. Frame rate : 29.970 (30000/1001/53354) FPS

  29. Color space : YUV

  30. Chroma subsampling : 4:2:0

  31. Bit depth : 8 bits

  32. Scan type : Progressive

  33. Bits/(Pixel*Frame) : 0.067

  34. Stream size : 615 MiB (97%)

  35. Language : Chinese

  36. Default : Yes

  37. Forced : No

  38. Audio

  39. ID : 2

  40. Format : AAC LC

  41. Format/Info : Advanced Audio Codec Low Complexity

  42. Codec ID : A_AAC-2

  43. Duration : 20 min 40 s

  44. Bit rate : 125 kb/s

  45. Channel(s) : 2 channels

  46. Channel layout : L R

  47. Sampling rate : 48.0 kHz

  48. Frame rate : 46.875 FPS (1024 SPF)

  49. Compression mode : Lossy

  50. Stream size : 18.5 MiB (3%)

  51. Language : Chinese

  52. Default : Yes

  53. Forced : No

  54. Text #1

  55. ID : 3

  56. Format : UTF-8

  57. Codec ID : S_TEXT/UTF8

  58. Codec ID/Info : UTF-8 Plain Text

  59. Duration : 17 min 34 s

  60. Bit rate : 49 b/s

  61. Count of elements : 298

  62. Stream size : 6.39 KiB (0%)

  63. Title : Simplified

  64. Language : Chinese

  65. Default : Yes

  66. Forced : No

  67. Text #2

  68. ID : 4

  69. Format : UTF-8

  70. Codec ID : S_TEXT/UTF8

  71. Codec ID/Info : UTF-8 Plain Text

  72. Duration : 17 min 34 s

  73. Bit rate : 56 b/s

  74. Count of elements : 299

  75. Stream size : 7.32 KiB (0%)

  76. Language : English

  77. Default : No

  78. Forced : No

  79. Text #3

  80. ID : 5

  81. Format : UTF-8

  82. Codec ID : S_TEXT/UTF8

  83. Codec ID/Info : UTF-8 Plain Text

  84. Duration : 17 min 34 s

  85. Bit rate : 49 b/s

  86. Count of elements : 298

  87. Stream size : 6.39 KiB (0%)

  88. Title : Traditional

  89. Language : Chinese

  90. Default : No

  91. Forced : No


复制代码



文件下载


除非特别注明,本文『前世情人的情人[国语音轨/中英字幕].Like.Father.Like.Daughter.2019.1080p.WEB-DL.AAC2.0.H.264 0.62GB』来源于互联网机器人自动抓取,非本站原创。 浮游电影网不对本文拥有版权,如有侵犯,请联系邮箱:fuyouu#yandex.com[#换成@]投诉。我们会在15个工作日内删除。 但烦请转载时请标明出处:“本文转载于『浮游电影网』,原文地址:https://www.fuyouu.com/21632.html

评论吧骚年!

发表你的见解   

昵称*

E-mail*(建议输入,以便收到博主回复的提示邮件)

验证码*

您可以使用eMule或eMule Mod(Windows)、aMule(Win、Linux、Mac)等软件下载eD2k链接。。
eMule收藏集(.emulecollection)文件是您选中的所有链接的列表文件。eMule可以直接下载它们。
按住SHIFT键选择可以选中多个选择框。
可用文件名和大小选择器来选择文件。
文件名选择器帮您根据文件名称或后缀来选择文件。不分大小写。
符号使用:
和:空格( )、+
不包含:-
或:|
转义:一对英文引号("");
匹配开头:^
匹配结尾:$
例如:
选中所有名称中包含有“eMule”或“0.49c”字眼,但不包含有“exe”字眼的:emule|0.49c -exe
选中所有名称的开头是“eMule”,结尾是“0.49c”的:^emule 0.49c$
选中所有名称中带有“eMule 0.49c”的(必须是“eMule 0.49c”,中间没有别的字符,不能是“eMule fake 0.49c”),需要转义:"emule 0.49c"
大小选择器帮您根据文件大小选择文件。