当前位置: 首页 >> 日韩电影 >> 天国与地狱[中文字幕].High.and.Low.1963.JAPANESE.1080p.BluRay.REMUX.AVC.DTS-HD.MA.4.0-FGT 28.77GB >> 正文

天国与地狱[中文字幕].High.and.Low.1963.JAPANESE.1080p.BluRay.REMUX.AVC.DTS-HD.MA.4.0-FGT 28.77GB

2022年04月23日 22:20:54     电影发布:来源于网络     电影分类:日韩电影     评论(0)    

天国与地狱[中文字幕].High.and.Low.1963.JAPANESE.1080p.BluRay.REMUX.AVC.DTS HD.MA.4.0 FGT 28.77GB  日韩电影  第1张

◎译 名 天国与地狱 / Tengoku to jigoku / High and Low

◎片 名 天国と地獄

◎年 代 1963

◎产 地 日本

◎类 别 剧情 / 犯罪

◎语 言 日语

◎上映日期 1963-03-01(日本)

◎IMDb链接 https://www.imdb.com/title/tt0057565/

◎豆瓣评分 8.7/10 (13561人评价)

◎豆瓣链接 https://movie.douban.com/subject/1293663/

◎片 长 143分钟

◎导 演 黑泽明 Akira Kurosawa (id:1054529)

◎编 剧 小国英雄 Hideo Oguni (id:1131182)

菊岛隆三 Ry?z? Kikushima (id:1288522)

久板荣二郎 Eijir? Hisaita (id:1011277)

黑泽明 Akira Kurosawa (id:1054529)

伊万·亨特 Evan Hunter (id:1028345)

◎演 员 三船敏郎 Toshir? Mifune (id:1056027)

仲代达矢 Tatsuya Nakadai (id:1036950)

香川京子 Ky?ko Kagawa (id:1037632)

三桥达也 Tatsuya Mihashi (id:1041907)

木村功 Isao Kimura (id:1012687)

石山健二郎 Ishiyama Kenjiro (id:1326277)

加藤武 Takeshi Kat? (id:1019752)

志村乔 Takashi Shimura (id:1032411)

田崎润 Jun Tazaki (id:1025635)

中村伸郎 Nobuo Nakamura (id:1051581)

伊藤雄之助 Y?nosuke It? (id:1025631)

山崎努 Tsutomu Yamazaki (id:1037053)

千秋实 Minoru Chiaki (id:1023321)

东野英治郎 Eijir? T?no (id:1159772)

清水将夫 Masao Shimizu (id:1029942)

佐田丰 Yutaka Sada (id:1003718)

岛津雅彦 Masahiko Shimazu (id:1030104)

江木俊夫 Toshio Egi (id:1020800)

三井弘次 K?ji Mitsui (id:1119897)

山茶花究 Ky? Sazanka (id:1139620)

藤田进 Susumu Fujita (id:1016957)

藤原釜足 Kamatari Fujiwara (id:1016877)

土屋嘉男 Yoshio Tsuchiya (id:1048479)

北村和夫 Kazuo Kitamura (id:1033693)

清水元 Gen Shimizu (id:1017176)

名古屋章 Akira Nagoya (id:1039007)

浜村淳 Jun Hamamura (id:1008310)

织田政雄 Masao Oda (id:1293472)

西村晃 K? Nishimura (id:1008337)

田岛义文 Yoshifumi Tajima (id:1025884)

大村千吉 Senkichi ?mura (id:1137188)

加藤和夫 Kazuo Kat? (id:1015646)

泽村伊纪雄 Ikio Sawamura (id:1051961)

菅井琴 Kin Sugai (id:1034236)

山本清 Kiyoshi Yamamoto (id:1030775)

儿玉谦次 Kenji Kodama (id:1021329)

伊藤实 Minoru It? (id:1111572)

野村浩三 K?z? Nomura (id:1039855)

黑泽明 Akira Kurosawa (id:1054529)

菊岛隆三 Ry?z? Kikushima (id:1288522)

森谷司郎 Shir? Moritani (id:1133112)

出目昌伸 Masanobu Deme (id:1282217)

◎简 介

在权藤今吾(三船敏郎 Toshiro Mifune)家里,举行了一场关于民族鞋业的董事会议,讨论关于新鞋的质量问题。权藤发表的意见慷慨激昂,他觉得不应该只顾降低成本提高利润,而忽视了鞋子本身的质量。此番言论显然跟其他人急功近利的理念大相径庭,因此其他人合谋决定罢黜他的董事会职位,由某个听话的傀儡顶替。当晚,权藤司机的儿子突然遭到绑架,绑匪以为他是权藤的儿子,因此向权藤勒索3000万元赎金。面对妻子(香川京子 Ky?ko Kagawa 饰)的劝解,深陷困境的权藤只得被迫就范,结果犯人用障眼法,避开了探长(仲代达矢 Tatsuya Nakadai 饰)的耳目,成功取走现金,丝毫不留痕迹。破财的权藤还要面临公司和债主的双重威逼。而警方则在绑架地发现了一对因吸食毒品死亡的恋人。然而,这还只是罪犯阴谋的开始……

◎获奖情况 (共2项)

第24届威尼斯电影节 (1963)

主竞赛单元 金狮奖 (提名)

└──黑泽明 (id:1054529)

第21届金球奖 (1964)

电影类 最佳外语片(提名)

  1. Video

  2. ID : 1

  3. ID in the original source medium : 4113 (0x1011)

  4. Format : AVC

  5. Format/Info : Advanced Video Codec

  6. Format profile : [email protected]

  7. Format settings : CABAC / 4 Ref Frames

  8. Format settings, CABAC : Yes

  9. Format settings, Reference frames : 4 frames

  10. Codec ID : V_MPEG4/ISO/AVC

  11. Duration : 2 h 23 min

  12. Bit rate mode : Variable

  13. Bit rate : 25.9 Mb/s

  14. Maximum bit rate : 37.0 Mb/s

  15. Width : 1 920 pixels

  16. Height : 1 080 pixels

  17. Display aspect ratio : 16:9

  18. Frame rate mode : Constant

  19. Frame rate : 23.976 (24000/1001/53354) FPS

  20. Color space : YUV

  21. Chroma subsampling : 4:2:0

  22. Bit depth : 8 bits

  23. Scan type : Progressive

  24. Bits/(Pixel*Frame) : 0.521

  25. Stream size : 26.0 GiB (90%)

  26. Language : English

  27. Default : No

  28. Forced : No

  29. Original source medium : Blu-ray


  30. Audio #1

  31. ID : 2

  32. ID in the original source medium : 4352 (0x1100)

  33. Format : DTS XLL

  34. Format/Info : Digital Theater Systems

  35. Commercial name : DTS-HD Master Audio

  36. Codec ID : A_DTS

  37. Duration : 2 h 23 min

  38. Bit rate mode : Variable

  39. Bit rate : 2 526 kb/s

  40. Channel(s) : 4 channels

  41. Channel layout : C L R Cb

  42. Sampling rate : 48.0 kHz

  43. Frame rate : 93.750 FPS (512 SPF)

  44. Bit depth : 24 bits

  45. Compression mode : Lossless

  46. Stream size : 2.53 GiB (9%)

  47. Title : DTS-HD MA 4.0

  48. Language : Japanese

  49. Default : Yes

  50. Forced : No

  51. Original source medium : Blu-ray


  52. Audio #2

  53. ID : 3

  54. ID in the original source medium : 4353 (0x1101)

  55. Format : AC-3

  56. Format/Info : Audio Coding 3

  57. Commercial name : Dolby Digital

  58. Codec ID : A_AC3

  59. Duration : 2 h 23 min

  60. Bit rate mode : Constant

  61. Bit rate : 192 kb/s

  62. Channel(s) : 2 channels

  63. Channel layout : L R

  64. Sampling rate : 48.0 kHz

  65. Frame rate : 31.250 FPS (1536 SPF)

  66. Compression mode : Lossy

  67. Stream size : 197 MiB (1%)

  68. Title : DD 2.0

  69. Language : English

  70. Service kind : Complete Main

  71. Default : No

  72. Forced : No

  73. Original source medium : Blu-ray


  74. Text #1

  75. ID : 4

  76. Format : UTF-8

  77. Codec ID : S_TEXT/UTF8

  78. Codec ID/Info : UTF-8 Plain Text

  79. Duration : 2 h 22 min

  80. Bit rate : 46 b/s

  81. Count of elements : 1405

  82. Stream size : 48.1 KiB (0%)

  83. Language : English

  84. Default : Yes

  85. Forced : No


  86. Text #2

  87. ID : 5

  88. ID in the original source medium : 4608 (0x1200)

  89. Format : PGS

  90. Muxing mode : zlib

  91. Codec ID : S_HDMV/PGS

  92. Codec ID/Info : Picture based subtitle format used on BDs/HD-DVDs

  93. Duration : 2 h 23 min

  94. Bit rate : 35.6 kb/s

  95. Count of elements : 2857

  96. Stream size : 36.4 MiB (0%)

  97. Language : English

  98. Default : No

  99. Forced : No

  100. Original source medium : Blu-ray


  101. Text #3

  102. ID : 6

  103. ID in the original source medium : 4609 (0x1201)

  104. Format : PGS

  105. Muxing mode : zlib

  106. Codec ID : S_HDMV/PGS

  107. Codec ID/Info : Picture based subtitle format used on BDs/HD-DVDs

  108. Duration : 2 h 19 min

  109. Bit rate : 21.9 kb/s

  110. Count of elements : 2380

  111. Stream size : 21.9 MiB (0%)

  112. Language : Chinese

  113. Default : No

  114. Forced : No

  115. Original source medium : Blu-ray


  116. Text #4

  117. ID : 7

  118. ID in the original source medium : 4610 (0x1202)

  119. Format : PGS

  120. Muxing mode : zlib

  121. Codec ID : S_HDMV/PGS

  122. Codec ID/Info : Picture based subtitle format used on BDs/HD-DVDs

  123. Duration : 2 h 19 min

  124. Bit rate : 22.6 kb/s

  125. Count of elements : 2380

  126. Stream size : 22.6 MiB (0%)

  127. Language : Chinese

  128. Default : No

  129. Forced : No

  130. Original source medium : Blu-ray


  131. Menu

  132. 00:00:00.000 : en:Chapter 01

  133. 00:02:25.603 : en:Chapter 02

  134. 00:10:54.236 : en:Chapter 03

  135. 00:16:47.006 : en:Chapter 04

  136. 00:19:45.142 : en:Chapter 05

  137. 00:23:51.805 : en:Chapter 06

  138. 00:29:47.619 : en:Chapter 07

  139. 00:34:08.713 : en:Chapter 08

  140. 00:39:14.143 : en:Chapter 09

  141. 00:45:02.241 : en:Chapter 10

  142. 00:50:16.471 : en:Chapter 11

  143. 00:55:13.935 : en:Chapter 12

  144. 01:01:51.791 : en:Chapter 13

  145. 01:05:24.962 : en:Chapter 14

  146. 01:10:45.241 : en:Chapter 15

  147. 01:15:46.416 : en:Chapter 16

  148. 01:22:13.553 : en:Chapter 17

  149. 01:27:40.463 : en:Chapter 18

  150. 01:36:00.004 : en:Chapter 19

  151. 01:42:06.161 : en:Chapter 20

  152. 01:45:23.066 : en:Chapter 21

  153. 01:50:22.490 : en:Chapter 22

  154. 01:55:35.845 : en:Chapter 23

  155. 02:05:11.754 : en:Chapter 24

  156. 02:10:53.762 : en:Chapter 25

  157. 02:13:40.762 : en:Chapter 26

  158. 02:17:16.353 : en:Chapter 27

复制代码

天国与地狱[中文字幕].High.and.Low.1963.JAPANESE.1080p.BluRay.REMUX.AVC.DTS HD.MA.4.0 FGT 28.77GB  日韩电影  第2张 天国与地狱[中文字幕].High.and.Low.1963.JAPANESE.1080p.BluRay.REMUX.AVC.DTS HD.MA.4.0 FGT 28.77GB  日韩电影  第3张 天国与地狱[中文字幕].High.and.Low.1963.JAPANESE.1080p.BluRay.REMUX.AVC.DTS HD.MA.4.0 FGT 28.77GB  日韩电影  第4张



文件下载


除非特别注明,本文『天国与地狱[中文字幕].High.and.Low.1963.JAPANESE.1080p.BluRay.REMUX.AVC.DTS-HD.MA.4.0-FGT 28.77GB』来源于互联网机器人自动抓取,非本站原创。 浮游电影网不对本文拥有版权,如有侵犯,请联系邮箱:fuyouu#yandex.com[#换成@]投诉。我们会在15个工作日内删除。 但烦请转载时请标明出处:“本文转载于『浮游电影网』,原文地址:https://www.fuyouu.com/21630.html

评论吧骚年!

发表你的见解   

昵称*

E-mail*(建议输入,以便收到博主回复的提示邮件)

验证码*

您可以使用eMule或eMule Mod(Windows)、aMule(Win、Linux、Mac)等软件下载eD2k链接。。
eMule收藏集(.emulecollection)文件是您选中的所有链接的列表文件。eMule可以直接下载它们。
按住SHIFT键选择可以选中多个选择框。
可用文件名和大小选择器来选择文件。
文件名选择器帮您根据文件名称或后缀来选择文件。不分大小写。
符号使用:
和:空格( )、+
不包含:-
或:|
转义:一对英文引号("");
匹配开头:^
匹配结尾:$
例如:
选中所有名称中包含有“eMule”或“0.49c”字眼,但不包含有“exe”字眼的:emule|0.49c -exe
选中所有名称的开头是“eMule”,结尾是“0.49c”的:^emule 0.49c$
选中所有名称中带有“eMule 0.49c”的(必须是“eMule 0.49c”,中间没有别的字符,不能是“eMule fake 0.49c”),需要转义:"emule 0.49c"
大小选择器帮您根据文件大小选择文件。