当前位置: 首页 >> 海外电影 >> 基督最后的诱惑[中文字幕].The.Last.Temptation.of.Christ.1988.1080p.BluRay.REMUX.VC-1.DTS-HD.MA.5.1-FGT 40.74GB >> 正文

基督最后的诱惑[中文字幕].The.Last.Temptation.of.Christ.1988.1080p.BluRay.REMUX.VC-1.DTS-HD.MA.5.1-FGT 40.74GB

2022年04月23日 22:19:00     电影发布:来源于网络     电影分类:海外电影     评论(0)    

基督最后的诱惑[中文字幕].The.Last.Temptation.of.Christ.1988.1080p.BluRay.REMUX.VC 1.DTS HD.MA.5.1 FGT 40.74GB  海外电影  第1张

◎译 名 基督最后的诱惑 / 基督的最后诱惑

◎片 名 The Last Temptation of Christ

◎年 代 1988

◎产 地 加拿大 / 美国

◎类 别 剧情

◎语 言 英语

◎上映日期 1988-08-12

◎IMDb链接 https://www.imdb.com/title/tt0095497/

◎豆瓣评分 7.8/10 (6770人评价)

◎豆瓣链接 https://movie.douban.com/subject/1292889/

◎片 长 164 分钟

◎导 演 马丁·斯科塞斯 Martin Scorsese (id:1054425)

◎编 剧 尼古斯·卡赞特扎吉斯 Nikos Kazantzakis (id:1005548)

保罗·施拉德 Paul Schrader (id:1009525)

◎演 员 威廉·达福 Willem Dafoe (id:1010539)

哈威·凯特尔 Harvey Keitel (id:1048131)

史蒂夫·希尔 Steve Shill (id:1324140)

弗娜·布鲁姆 Verna Bloom (id:1063239)

芭芭拉·赫希 Barbara Hershey (id:1006998)

罗伯茨·布洛瑟姆 Roberts Blossom (id:1067168)

贝瑞·米勒 Barry Miller (id:1004882)

盖里·巴萨拉巴 Gary Basaraba (id:1061364)

厄文·克什纳 Irvin Kershner (id:1045089)

维克多·阿尔果 Victor Argo (id:1041397)

保罗·赫尔曼 Paul Herman (id:1000541)

约翰·劳瑞 John Lurie (id:1036957)

里奥·伯梅斯特 Leo Burmester (id:1073861)

安德烈·格雷戈里 Andre Gregory (id:1045313)

佩吉·戈尔姆利 Peggy Gormley (id:1285208)

Randy Danson Randy Danson (id:1084136)

托马斯·阿拉纳 Tomas Arana (id:1057639)

阿兰·罗森伯格 Alan Rosenberg (id:1027471)

德尔·罗素 Del Russel (id:1138195)

内赫米亚·佩尔索夫 Nehemiah Persoff (id:1134191)

哈利·戴恩·斯坦通 Harry Dean Stanton (id:1010582)

彼得·贝尔林 Peter Berling (id:1033190)

大卫·鲍伊 David Bowie (id:1013850)

Penny Brown Penny Brown (id:1075369)

Leo Damian Leo Damian (id:1281755)

Robert Laconi Robert Laconi (id:1114552)

伊里纳·道格拉斯 Illeana Douglas (id:1025235)

Giovanni Cianfriglia Giovanni Cianfriglia (id:1074046)

里奥·马克思 Leo Marks (id:1028878)

保罗·格雷科 Paul Greco (id:1096833)

◎简 介

本片不以《圣经》为依据,而是以故事为线索展示心灵内在的信仰冲突。当以色列处于罗马统治下的时候,木匠耶稣(威廉·达福 Willem Dafoe 饰)为罗马军队制作十字架,他为冥冥中似乎来自上帝的召唤而困扰。耶稣动身探求真相,于路邂逅起义者犹大(Harvey Keitel 饰)和昔日的朋友妓女抹大拉,他们指责耶稣的懦弱,使其坚定了信仰,越来越多的信徒加入了耶稣的队伍,施洗者约翰指点耶稣前往沙漠。耶稣抵御了诱惑,获得更大的力量,他带人围攻耶路撒冷神殿,令犹大去罗马当局告发自己,在十字架上的耶稣得到天使的信息,他走下十字架,过上了平凡的生活,直到多年以后,耶稣发现了事情的真相,重新回到了自己命运中……

本片根据卡赞察斯基的同名小说改编,自从1983年斯科塞斯第一次筹划将本片搬上银幕,宗教团体的反对声便喧嚣尘上,致使拍片计划一再拖延。

◎获奖情况 (共1项)

第61届奥斯卡金像奖 (1989)

最佳导演(提名)

└──马丁·斯科塞斯 (id:1054425)

  1. Video

  2. ID : 1

  3. ID in the original source medium : 4113 (0x1011)

  4. Format : VC-1

  5. Format profile : [email protected]

  6. Codec ID : V_MS/VFW/FOURCC / WVC1

  7. Codec ID/Hint : Microsoft

  8. Duration : 2 h 43 min

  9. Bit rate : 27.9 Mb/s

  10. Width : 1 920 pixels

  11. Height : 1 080 pixels

  12. Display aspect ratio : 16:9

  13. Frame rate mode : Constant

  14. Frame rate : 23.976 (24000/1001/53354) FPS

  15. Color space : YUV

  16. Chroma subsampling : 4:2:0

  17. Bit depth : 8 bits

  18. Scan type : Progressive

  19. Compression mode : Lossy

  20. Bits/(Pixel*Frame) : 0.561

  21. Stream size : 31.8 GiB (78%)

  22. Language : English

  23. Default : No

  24. Forced : No

  25. Original source medium : Blu-ray


  26. Audio #1

  27. ID : 2

  28. ID in the original source medium : 4352 (0x1100)

  29. Format : DTS XLL

  30. Format/Info : Digital Theater Systems

  31. Commercial name : DTS-HD Master Audio

  32. Codec ID : A_DTS

  33. Duration : 2 h 43 min

  34. Bit rate mode : Variable

  35. Bit rate : 4 078 kb/s

  36. Channel(s) : 6 channels

  37. Channel layout : C L R Ls Rs LFE

  38. Sampling rate : 48.0 kHz

  39. Frame rate : 93.750 FPS (512 SPF)

  40. Bit depth : 24 bits

  41. Compression mode : Lossless

  42. Stream size : 4.65 GiB (11%)

  43. Title : DTS-HD MA 5.1

  44. Language : English

  45. Default : Yes

  46. Forced : No

  47. Original source medium : Blu-ray


  48. Audio #2

  49. ID : 3

  50. ID in the original source medium : 4353 (0x1101)

  51. Format : DTS

  52. Format/Info : Digital Theater Systems

  53. Codec ID : A_DTS

  54. Duration : 2 h 43 min

  55. Bit rate mode : Constant

  56. Bit rate : 447 kb/s

  57. Channel(s) : 2 channels

  58. Channel layout : L R

  59. Sampling rate : 48.0 kHz

  60. Frame rate : 93.750 FPS (512 SPF)

  61. Bit depth : 24 bits

  62. Compression mode : Lossy

  63. Stream size : 522 MiB (1%)

  64. Title : DTS 2.0

  65. Language : Portuguese

  66. Default : No

  67. Forced : No

  68. Original source medium : Blu-ray


  69. Audio #3

  70. ID : 4

  71. ID in the original source medium : 4354 (0x1102)

  72. Format : DTS

  73. Format/Info : Digital Theater Systems

  74. Codec ID : A_DTS

  75. Duration : 2 h 43 min

  76. Bit rate mode : Constant

  77. Bit rate : 447 kb/s

  78. Channel(s) : 2 channels

  79. Channel layout : L R

  80. Sampling rate : 48.0 kHz

  81. Frame rate : 93.750 FPS (512 SPF)

  82. Bit depth : 24 bits

  83. Compression mode : Lossy

  84. Stream size : 522 MiB (1%)

  85. Title : DTS 2.0

  86. Language : Hungarian

  87. Default : No

  88. Forced : No

  89. Original source medium : Blu-ray


  90. Audio #4

  91. ID : 5

  92. ID in the original source medium : 4355 (0x1103)

  93. Format : DTS

  94. Format/Info : Digital Theater Systems

  95. Codec ID : A_DTS

  96. Duration : 2 h 43 min

  97. Bit rate mode : Constant

  98. Bit rate : 447 kb/s

  99. Channel(s) : 2 channels

  100. Channel layout : L R

  101. Sampling rate : 48.0 kHz

  102. Frame rate : 93.750 FPS (512 SPF)

  103. Bit depth : 24 bits

  104. Compression mode : Lossy

  105. Stream size : 522 MiB (1%)

  106. Title : DTS 2.0

  107. Language : Spanish

  108. Default : No

  109. Forced : No

  110. Original source medium : Blu-ray


  111. Audio #5

  112. ID : 6

  113. ID in the original source medium : 4356 (0x1104)

  114. Format : DTS

  115. Format/Info : Digital Theater Systems

  116. Codec ID : A_DTS

  117. Duration : 2 h 43 min

  118. Bit rate mode : Constant

  119. Bit rate : 768 kb/s

  120. Channel(s) : 2 channels

  121. Channel layout : Lt Rt

  122. Sampling rate : 48.0 kHz

  123. Frame rate : 93.750 FPS (512 SPF)

  124. Bit depth : 24 bits

  125. Compression mode : Lossy

  126. Stream size : 896 MiB (2%)

  127. Title : DTS 2.0

  128. Language : Polish

  129. Default : No

  130. Forced : No

  131. Original source medium : Blu-ray


  132. Audio #6

  133. ID : 7

  134. ID in the original source medium : 4357 (0x1105)

  135. Format : DTS

  136. Format/Info : Digital Theater Systems

  137. Codec ID : A_DTS

  138. Duration : 2 h 43 min

  139. Bit rate mode : Constant

  140. Bit rate : 768 kb/s

  141. Channel(s) : 2 channels

  142. Channel layout : Lt Rt

  143. Sampling rate : 48.0 kHz

  144. Frame rate : 93.750 FPS (512 SPF)

  145. Bit depth : 24 bits

  146. Compression mode : Lossy

  147. Stream size : 896 MiB (2%)

  148. Title : DTS 2.0

  149. Language : Russian

  150. Default : No

  151. Forced : No

  152. Original source medium : Blu-ray


  153. Audio #7

  154. ID : 8

  155. ID in the original source medium : 4358 (0x1106)

  156. Format : DTS

  157. Format/Info : Digital Theater Systems

  158. Codec ID : A_DTS

  159. Duration : 2 h 43 min

  160. Bit rate mode : Constant

  161. Bit rate : 768 kb/s

  162. Channel(s) : 2 channels

  163. Channel layout : Lt Rt

  164. Sampling rate : 48.0 kHz

  165. Frame rate : 93.750 FPS (512 SPF)

  166. Bit depth : 24 bits

  167. Compression mode : Lossy

  168. Stream size : 896 MiB (2%)

  169. Title : DTS 2.0

  170. Language : Thai

  171. Default : No

  172. Forced : No

  173. Original source medium : Blu-ray


  174. Text #1

  175. ID : 9

  176. Format : UTF-8

  177. Codec ID : S_TEXT/UTF8

  178. Codec ID/Info : UTF-8 Plain Text

  179. Duration : 2 h 36 min

  180. Bit rate : 40 b/s

  181. Count of elements : 1505

  182. Stream size : 46.1 KiB (0%)

  183. Language : English

  184. Default : Yes

  185. Forced : No


  186. Text #2

  187. ID : 10

  188. Format : UTF-8

  189. Codec ID : S_TEXT/UTF8

  190. Codec ID/Info : UTF-8 Plain Text

  191. Duration : 2 h 36 min

  192. Bit rate : 41 b/s

  193. Count of elements : 1594

  194. Stream size : 47.6 KiB (0%)

  195. Title : SDH

  196. Language : English

  197. Default : No

  198. Forced : No


  199. Text #3

  200. ID : 11

  201. ID in the original source medium : 4608 (0x1200)

  202. Format : PGS

  203. Muxing mode : zlib

  204. Codec ID : S_HDMV/PGS

  205. Codec ID/Info : Picture based subtitle format used on BDs/HD-DVDs

  206. Duration : 2 h 36 min

  207. Bit rate : 28.3 kb/s

  208. Count of elements : 3222

  209. Stream size : 31.6 MiB (0%)

  210. Language : English

  211. Default : No

  212. Forced : No

  213. Original source medium : Blu-ray


  214. Text #4

  215. ID : 12

  216. ID in the original source medium : 4609 (0x1201)

  217. Format : PGS

  218. Muxing mode : zlib

  219. Codec ID : S_HDMV/PGS

  220. Codec ID/Info : Picture based subtitle format used on BDs/HD-DVDs

  221. Duration : 2 h 42 min

  222. Bit rate : 25.1 kb/s

  223. Count of elements : 2890

  224. Stream size : 29.2 MiB (0%)

  225. Language : Portuguese

  226. Default : No

  227. Forced : No

  228. Original source medium : Blu-ray


  229. Text #5

  230. ID : 13

  231. ID in the original source medium : 4610 (0x1202)

  232. Format : PGS

  233. Muxing mode : zlib

  234. Codec ID : S_HDMV/PGS

  235. Codec ID/Info : Picture based subtitle format used on BDs/HD-DVDs

  236. Duration : 2 h 42 min

  237. Bit rate : 24.8 kb/s

  238. Count of elements : 2892

  239. Stream size : 28.8 MiB (0%)

  240. Language : Hungarian

  241. Default : No

  242. Forced : No

  243. Original source medium : Blu-ray


  244. Text #6

  245. ID : 14

  246. ID in the original source medium : 4611 (0x1203)

  247. Format : PGS

  248. Muxing mode : zlib

  249. Codec ID : S_HDMV/PGS

  250. Codec ID/Info : Picture based subtitle format used on BDs/HD-DVDs

  251. Duration : 2 h 38 min

  252. Bit rate : 25.8 kb/s

  253. Count of elements : 2888

  254. Stream size : 29.2 MiB (0%)

  255. Language : Spanish

  256. Default : No

  257. Forced : No

  258. Original source medium : Blu-ray


  259. Text #7

  260. ID : 15

  261. ID in the original source medium : 4612 (0x1204)

  262. Format : PGS

  263. Muxing mode : zlib

  264. Codec ID : S_HDMV/PGS

  265. Codec ID/Info : Picture based subtitle format used on BDs/HD-DVDs

  266. Duration : 2 h 42 min

  267. Bit rate : 24.6 kb/s

  268. Count of elements : 2892

  269. Stream size : 28.6 MiB (0%)

  270. Language : Polish

  271. Default : No

  272. Forced : No

  273. Original source medium : Blu-ray


  274. Text #8

  275. ID : 16

  276. ID in the original source medium : 4613 (0x1205)

  277. Format : PGS

  278. Muxing mode : zlib

  279. Codec ID : S_HDMV/PGS

  280. Codec ID/Info : Picture based subtitle format used on BDs/HD-DVDs

  281. Duration : 2 h 42 min

  282. Bit rate : 23.4 kb/s

  283. Count of elements : 2892

  284. Stream size : 27.2 MiB (0%)

  285. Language : Russian

  286. Default : No

  287. Forced : No

  288. Original source medium : Blu-ray


  289. Text #9

  290. ID : 17

  291. ID in the original source medium : 4614 (0x1206)

  292. Format : PGS

  293. Muxing mode : zlib

  294. Codec ID : S_HDMV/PGS

  295. Codec ID/Info : Picture based subtitle format used on BDs/HD-DVDs

  296. Duration : 2 h 42 min

  297. Bit rate : 20.9 kb/s

  298. Count of elements : 2894

  299. Stream size : 24.4 MiB (0%)

  300. Language : Thai

  301. Default : No

  302. Forced : No

  303. Original source medium : Blu-ray


  304. Text #10

  305. ID : 18

  306. ID in the original source medium : 4615 (0x1207)

  307. Format : PGS

  308. Muxing mode : zlib

  309. Codec ID : S_HDMV/PGS

  310. Codec ID/Info : Picture based subtitle format used on BDs/HD-DVDs

  311. Duration : 2 h 42 min

  312. Bit rate : 22.4 kb/s

  313. Count of elements : 2850

  314. Stream size : 26.1 MiB (0%)

  315. Language : Bulgarian

  316. Default : No

  317. Forced : No

  318. Original source medium : Blu-ray


  319. Text #11

  320. ID : 19

  321. ID in the original source medium : 4616 (0x1208)

  322. Format : PGS

  323. Muxing mode : zlib

  324. Codec ID : S_HDMV/PGS

  325. Codec ID/Info : Picture based subtitle format used on BDs/HD-DVDs

  326. Duration : 2 h 42 min

  327. Bit rate : 19.7 kb/s

  328. Count of elements : 2892

  329. Stream size : 22.9 MiB (0%)

  330. Language : Chinese

  331. Default : No

  332. Forced : No

  333. Original source medium : Blu-ray


  334. Text #12

  335. ID : 20

  336. ID in the original source medium : 4617 (0x1209)

  337. Format : PGS

  338. Muxing mode : zlib

  339. Codec ID : S_HDMV/PGS

  340. Codec ID/Info : Picture based subtitle format used on BDs/HD-DVDs

  341. Duration : 2 h 42 min

  342. Bit rate : 21.3 kb/s

  343. Count of elements : 2890

  344. Stream size : 24.8 MiB (0%)

  345. Language : Czech

  346. Default : No

  347. Forced : No

  348. Original source medium : Blu-ray


  349. Text #13

  350. ID : 21

  351. ID in the original source medium : 4618 (0x120A)

  352. Format : PGS

  353. Muxing mode : zlib

  354. Codec ID : S_HDMV/PGS

  355. Codec ID/Info : Picture based subtitle format used on BDs/HD-DVDs

  356. Duration : 2 h 42 min

  357. Bit rate : 27.1 kb/s

  358. Count of elements : 2892

  359. Stream size : 31.5 MiB (0%)

  360. Language : Greek

  361. Default : No

  362. Forced : No

  363. Original source medium : Blu-ray


  364. Text #14

  365. ID : 22

  366. ID in the original source medium : 4619 (0x120B)

  367. Format : PGS

  368. Muxing mode : zlib

  369. Codec ID : S_HDMV/PGS

  370. Codec ID/Info : Picture based subtitle format used on BDs/HD-DVDs

  371. Duration : 2 h 42 min

  372. Bit rate : 18.6 kb/s

  373. Count of elements : 2918

  374. Stream size : 21.6 MiB (0%)

  375. Language : Korean

  376. Default : No

  377. Forced : No

  378. Original source medium : Blu-ray


  379. Text #15

  380. ID : 23

  381. ID in the original source medium : 4620 (0x120C)

  382. Format : PGS

  383. Muxing mode : zlib

  384. Codec ID : S_HDMV/PGS

  385. Codec ID/Info : Picture based subtitle format used on BDs/HD-DVDs

  386. Duration : 2 h 42 min

  387. Bit rate : 23.3 kb/s

  388. Count of elements : 2894

  389. Stream size : 27.1 MiB (0%)

  390. Language : Romanian

  391. Default : No

  392. Forced : No

  393. Original source medium : Blu-ray


  394. Text #16

  395. ID : 24

  396. ID in the original source medium : 4621 (0x120D)

  397. Format : PGS

  398. Muxing mode : zlib

  399. Codec ID : S_HDMV/PGS

  400. Codec ID/Info : Picture based subtitle format used on BDs/HD-DVDs

  401. Duration : 2 h 42 min

  402. Bit rate : 24.7 kb/s

  403. Count of elements : 2892

  404. Stream size : 28.7 MiB (0%)

  405. Language : Turkish

  406. Default : No

  407. Forced : No

  408. Original source medium : Blu-ray


  409. Text #17

  410. ID : 25

  411. ID in the original source medium : 4622 (0x120E)

  412. Format : PGS

  413. Muxing mode : zlib

  414. Codec ID : S_HDMV/PGS

  415. Codec ID/Info : Picture based subtitle format used on BDs/HD-DVDs

  416. Duration : 2 h 42 min

  417. Bit rate : 19.4 kb/s

  418. Count of elements : 2884

  419. Stream size : 22.6 MiB (0%)

  420. Language : Chinese

  421. Default : No

  422. Forced : No

  423. Original source medium : Blu-ray


  424. Text #18

  425. ID : 26

  426. ID in the original source medium : 4623 (0x120F)

  427. Format : PGS

  428. Muxing mode : zlib

  429. Codec ID : S_HDMV/PGS

  430. Codec ID/Info : Picture based subtitle format used on BDs/HD-DVDs

  431. Duration : 14 min 34 s

  432. Bit rate : 513 b/s

  433. Count of elements : 12

  434. Stream size : 54.8 KiB (0%)

  435. Language : Thai

  436. Default : No

  437. Forced : No

  438. Original source medium : Blu-ray


  439. Menu

  440. 00:00:00.000 : en:Chapter 01

  441. 00:06:35.019 : en:Chapter 02

  442. 00:11:57.925 : en:Chapter 03

  443. 00:17:00.728 : en:Chapter 04

  444. 00:22:33.101 : en:Chapter 05

  445. 00:27:51.503 : en:Chapter 06

  446. 00:33:00.853 : en:Chapter 07

  447. 00:41:40.956 : en:Chapter 08

  448. 00:47:45.863 : en:Chapter 09

  449. 00:53:21.072 : en:Chapter 10

  450. 01:01:14.212 : en:Chapter 11

  451. 01:08:48.874 : en:Chapter 12

  452. 01:14:32.593 : en:Chapter 13

  453. 01:18:57.607 : en:Chapter 14

  454. 01:23:09.359 : en:Chapter 15

  455. 01:28:41.899 : en:Chapter 16

  456. 01:33:30.187 : en:Chapter 17

  457. 01:37:22.044 : en:Chapter 18

  458. 01:43:18.609 : en:Chapter 19

  459. 01:47:54.676 : en:Chapter 20

  460. 01:53:27.300 : en:Chapter 21

  461. 01:57:56.569 : en:Chapter 22

  462. 02:04:40.055 : en:Chapter 23

  463. 02:09:18.959 : en:Chapter 24

  464. 02:17:36.748 : en:Chapter 25

  465. 02:21:37.280 : en:Chapter 26

  466. 02:28:05.543 : en:Chapter 27

  467. 02:36:35.594 : en:Chapter 28

  468. 02:39:08.372 : en:Chapter 29

复制代码

基督最后的诱惑[中文字幕].The.Last.Temptation.of.Christ.1988.1080p.BluRay.REMUX.VC 1.DTS HD.MA.5.1 FGT 40.74GB  海外电影  第2张 基督最后的诱惑[中文字幕].The.Last.Temptation.of.Christ.1988.1080p.BluRay.REMUX.VC 1.DTS HD.MA.5.1 FGT 40.74GB  海外电影  第3张 基督最后的诱惑[中文字幕].The.Last.Temptation.of.Christ.1988.1080p.BluRay.REMUX.VC 1.DTS HD.MA.5.1 FGT 40.74GB  海外电影  第4张



文件下载


除非特别注明,本文『基督最后的诱惑[中文字幕].The.Last.Temptation.of.Christ.1988.1080p.BluRay.REMUX.VC-1.DTS-HD.MA.5.1-FGT 40.74GB』来源于互联网机器人自动抓取,非本站原创。 浮游电影网不对本文拥有版权,如有侵犯,请联系邮箱:fuyouu#yandex.com[#换成@]投诉。我们会在15个工作日内删除。 但烦请转载时请标明出处:“本文转载于『浮游电影网』,原文地址:https://www.fuyouu.com/21629.html

评论吧骚年!

发表你的见解   

昵称*

E-mail*(建议输入,以便收到博主回复的提示邮件)

验证码*

您可以使用eMule或eMule Mod(Windows)、aMule(Win、Linux、Mac)等软件下载eD2k链接。。
eMule收藏集(.emulecollection)文件是您选中的所有链接的列表文件。eMule可以直接下载它们。
按住SHIFT键选择可以选中多个选择框。
可用文件名和大小选择器来选择文件。
文件名选择器帮您根据文件名称或后缀来选择文件。不分大小写。
符号使用:
和:空格( )、+
不包含:-
或:|
转义:一对英文引号("");
匹配开头:^
匹配结尾:$
例如:
选中所有名称中包含有“eMule”或“0.49c”字眼,但不包含有“exe”字眼的:emule|0.49c -exe
选中所有名称的开头是“eMule”,结尾是“0.49c”的:^emule 0.49c$
选中所有名称中带有“eMule 0.49c”的(必须是“eMule 0.49c”,中间没有别的字符,不能是“eMule fake 0.49c”),需要转义:"emule 0.49c"
大小选择器帮您根据文件大小选择文件。