当前位置: 首页 >> 海外电影 >> 邮差[中文字幕][email protected]COM 15.54GB >> 正文

邮差[中文字幕][email protected]COM 15.54GB

2022年04月23日 22:16:13     电影发布:来源于网络     电影分类:海外电影     评论(0)    

邮差[中文字幕].The.Postman.1994.2160p.HAMI.WEB DL.AAC2.0.H.264 CTRLWEB@BBQDDQ.COM 15.54GB  海外电影  第1张

◎译 名 邮差 / 事先张扬的求爱事件 / The Postman

◎片 名 Il postino

◎年 代 1994

◎产 地 意大利 / 法国 / 比利时

◎类 别 剧情 / 喜剧 / 爱情 / 传记

◎语 言 意大利语 / 西班牙语

◎上映日期 1994-09-01(威尼斯电影节) / 1994-09-22(意大利)

◎IMDb链接 https://www.imdb.com/title/tt0110877/

◎豆瓣评分 8.8/10 (19309人评价)

◎豆瓣链接 https://movie.douban.com/subject/1298468/

◎片 长 108分钟

◎导 演 迈克尔·莱德福 Michael Radford (id:1032324)

马西莫·特洛伊西 Massimo Troisi (id:1005084)

◎编 剧 富里奥·斯卡佩利 Furio Scarpelli (id:1037617)

贾科莫·斯卡尔佩利 Giacomo Scarpelli (id:1296804)

安娜·帕维格纳诺 Anna Pavignano (id:1294127)

马西莫·特洛伊西 Massimo Troisi (id:1005084)

迈克尔·莱德福 Michael Radford (id:1032324)

◎演 员 菲利普·努瓦雷 Philippe Noiret (id:1027971)

马西莫·特洛伊西 Massimo Troisi (id:1005084)

玛丽亚·格拉齐亚·库奇诺塔 Maria Grazia Cucinotta (id:1022787)

雷纳托·斯卡帕 Renato Scarpa (id:1138312)

琳达·莫雷蒂 Linda Moretti (id:1134569)

Mariano Rigillo Mariano Rigillo (id:1143806)

安娜·博纳奥图 Anna Bonaiuto (id:1008149)

加埃塔诺·丹尼尔 Gaetano Daniele (id:1281776)

马里奥·切奇·戈里 Mario Cecchi Gori (id:1280334)

维托里奥·切奇·戈里 Vittorio Cecchi Gori (id:1054355)

路易斯·巴卡洛夫 Luis Enríquez Bacalov (id:1002960)

Franco Di Giacomo Franco Di Giacomo (id:1051937)

罗伯托·佩皮尼亚尼 Roberto Perpignani (id:1003603)

Lorenzo Baraldi Lorenzo Baraldi (id:1043050)

Gianna Gissi Gianna Gissi (id:1007583)

Alfredo Marazzi Alfredo Marazzi (id:1120621)

费迪南多·梅罗拉 Ferdinando Merolla (id:1291885)

斯特法诺·维内鲁索 Stefano Veneruso (id:1015122)

科西莫·高梅茲 Cosimo Gomez (id:1378457)

◎简 介

马里奥(马西莫?特罗西 Massimo Troisi 饰)是一个渔民的儿子,他并不喜欢大海,却当上了邮递员,专门负责小岛上信件的发送。

小岛上住着智利诗人聂鲁达(菲利浦?诺瓦雷 Philippe Noiret 饰)和他的妻子。聂鲁达被流放至此地,他擅长写诗,才华横溢。马里奥每天都收发很多聂鲁达的信件。在频繁的接触中,马里奥越发崇拜这个诗人,他热衷于跟聂鲁达讨论诗,学习诗。当爱上岛上的美丽姑娘后,马里奥经常跟聂鲁达倾诉心事,并最终用诗打动了姑娘的芳心,二人结成伉俪。

直到聂鲁达离开小岛,马里奥仍然坚持着对诗的热爱。他继续写诗,正打算在工人集会上读诗,却遭致了意想不到的灾难

◎获奖情况 (共11项)

第68届奥斯卡金像奖 (1996)

最佳影片(提名)

最佳导演(提名)

└──迈克尔·莱德福 (id:1032324)

最佳男主角(提名)

└──马西莫·特洛伊西 (id:1005084)

最佳改编剧本(提名)

剧情片最佳原创配乐

└──路易斯·巴卡洛夫 (id:1002960)

第49届英国电影学院奖 (1996)

电影奖 最佳导演

└──迈克尔·莱德福 (id:1032324)

电影奖 最佳男主角(提名)

└──马西莫·特洛伊西 (id:1005084)

电影奖 最佳改编剧本(提名)

电影奖 最佳非英语

电影奖 最佳原创音乐

└──路易斯·巴卡洛夫 (id:1002960)

第20届日本电影学院奖 (1997)

最佳外语片

  1. ##### MediaInfo ######

  2. General

  3. Unique ID : 118103625236232615040124980445730531816 (0x58D9EE4B6B781CC26A18C245A1A369E8)

  4. Complete name : The.Postman.1994.2160p.HAMI.WEB-DL.AAC2.0.H.264-CHDWEB.mkv

  5. Format : Matroska

  6. Format version : Version 4

  7. File size : 15.5 GiB

  8. Duration : 1 h 53 min

  9. Overall bit rate : 19.6 Mb/s

  10. Encoded date : UTC 2022-04-22 04:34:08

  11. Writing application : mkvmerge v63.0.0 ('Everything') 32-bit

  12. Writing library : libebml v1.4.2 + libmatroska v1.6.4

  13. Video

  14. ID : 1

  15. Format : AVC

  16. Format/Info : Advanced Video Codec

  17. Format profile : [email protected]

  18. Format settings : CABAC / 3 Ref Frames

  19. Format settings, CABAC : Yes

  20. Format settings, Reference frames : 3 frames

  21. Format settings, GOP : M=1, N=30

  22. Codec ID : V_MPEG4/ISO/AVC

  23. Duration : 1 h 53 min

  24. Bit rate : 20.0 Mb/s

  25. Width : 3 840 pixels

  26. Height : 2 160 pixels

  27. Display aspect ratio : 16:9

  28. Frame rate mode : Constant

  29. Frame rate : 30.000 FPS

  30. Color space : YUV

  31. Chroma subsampling : 4:2:0

  32. Bit depth : 8 bits

  33. Scan type : Progressive

  34. Bits/(Pixel*Frame) : 0.080

  35. Stream size : 15.4 GiB (99%)

  36. Writing library : x264 core 157 r2935 545de2f

  37. Encoding settings : cabac=1 / ref=3 / deblock=1:0:0 / analyse=0x3:0x113 / me=hex / subme=7 / psy=1 / psy_rd=1.00:0.00 / mixed_ref=1 / me_range=16 / chroma_me=1 / trellis=1 / 8x8dct=1 / cqm=0 / deadzone=21,11 / fast_pskip=1 / chroma_qp_offset=-2 / threads=67 / lookahead_threads=11 / sliced_threads=0 / nr=0 / decimate=1 / interlaced=0 / NTMzNTQ= / bluray_compat=0 / constrained_intra=0 / bframes=0 / weightp=2 / keyint=30 / keyint_min=16 / scenecut=0 / intra_refresh=0 / rc_lookahead=30 / rc=cbr / mbtree=1 / bitrate=20000 / ratetol=1.0 / qcomp=0.60 / qpmin=0 / qpmax=69 / qpstep=4 / vbv_maxrate=20000 / vbv_bufsize=20000 / nal_hrd=none / filler=0 / NTMzNTQ=LmsMAP37EqsCpk / ip_ratio=1.40 / aq=1:1.00

  38. Default : Yes

  39. Forced : No

  40. Audio

  41. ID : 2

  42. Format : AAC LC

  43. Format/Info : Advanced Audio Codec Low Complexity

  44. Codec ID : A_AAC-2

  45. Duration : 1 h 53 min

  46. Bit rate : 129 kb/s

  47. Channel(s) : 2 channels

  48. Channel layout : L R

  49. Sampling rate : 48.0 kHz

  50. Frame rate : 46.875 FPS (1024 SPF)

  51. Compression mode : Lossy

  52. Stream size : 105 MiB (1%)

  53. Language : Italian

  54. Default : Yes

  55. Forced : No


复制代码



文件下载


除非特别注明,本文『邮差[中文字幕][email protected]COM 15.54GB』来源于互联网机器人自动抓取,非本站原创。 浮游电影网不对本文拥有版权,如有侵犯,请联系邮箱:fuyouu#yandex.com[#换成@]投诉。我们会在15个工作日内删除。 但烦请转载时请标明出处:“本文转载于『浮游电影网』,原文地址:https://www.fuyouu.com/21627.html

评论吧骚年!

发表你的见解   

昵称*

E-mail*(建议输入,以便收到博主回复的提示邮件)

验证码*

您可以使用eMule或eMule Mod(Windows)、aMule(Win、Linux、Mac)等软件下载eD2k链接。。
eMule收藏集(.emulecollection)文件是您选中的所有链接的列表文件。eMule可以直接下载它们。
按住SHIFT键选择可以选中多个选择框。
可用文件名和大小选择器来选择文件。
文件名选择器帮您根据文件名称或后缀来选择文件。不分大小写。
符号使用:
和:空格( )、+
不包含:-
或:|
转义:一对英文引号("");
匹配开头:^
匹配结尾:$
例如:
选中所有名称中包含有“eMule”或“0.49c”字眼,但不包含有“exe”字眼的:emule|0.49c -exe
选中所有名称的开头是“eMule”,结尾是“0.49c”的:^emule 0.49c$
选中所有名称中带有“eMule 0.49c”的(必须是“eMule 0.49c”,中间没有别的字符,不能是“eMule fake 0.49c”),需要转义:"emule 0.49c"
大小选择器帮您根据文件大小选择文件。