当前位置: 首页 >> 海外电影 >> 龙虾[繁英字幕][email protected]Q.COM 8.78GB >> 正文

龙虾[繁英字幕][email protected]Q.COM 8.78GB

2022年04月23日 22:14:52     电影发布:来源于网络     电影分类:海外电影     评论(0)    

龙虾[繁英字幕].The.Lobster.2015.BluRay.1080p.DTS HD.MA5.1.x265.10bit ALT@BBQDDQ.COM 8.78GB  海外电影  第1张

◎译 名 龙虾 / 单身动物园(港 / 台) / Ο Αστακ??

◎片 名 The Lobster

◎年 代 2015

◎产 地 爱尔兰 / 英国 / 希腊 / 法国 / 荷兰

◎类 别 剧情 / 喜剧 / 奇幻

◎语 言 英语 / 法语

◎上映日期 2015-05-15(戛纳电影节) / 2015-10-16(爱尔兰)

◎IMDb链接 https://www.imdb.com/title/tt3464902/

◎豆瓣评分 7.6/10 (129300人评价)

◎豆瓣链接 https://movie.douban.com/subject/20514947/

◎片 长 118分钟

◎导 演 欧格斯·兰斯莫斯 Yorgos Lanthimos (id:1289439)

◎编 剧 欧格斯·兰斯莫斯 Yorgos Lanthimos (id:1289439)

埃夫西米斯·菲利普 Efthymis Filippou (id:1315735)

◎演 员 科林·法瑞尔 Colin Farrell (id:1084255)

蕾切尔·薇兹 Rachel Weisz (id:1018989)

约翰·C·赖利 John C. Reilly (id:1017907)

蕾雅·赛杜 Léa Seydoux (id:1009295)

奥利维娅·科尔曼 Olivia Colman (id:1004900)

本·卫肖 Ben Whishaw (id:1025149)

亚里安妮·拉贝德 Ariane Labed (id:1313012)

罗杰·阿什顿-格里菲斯 Roger Ashton-Griffiths (id:1054793)

迈克尔·史麦利 Michael Smiley (id:1332722)

杰西卡·巴登 Jessica Barden (id:1216038)

昂格利基·帕普利亚 Angeliki Papoulia (id:1337284)

萝丝楠·霍尔特 Rosanna Hoult (id:1356702)

莎娜·凯斯雷克 Seána Kerslake (id:1363129)

阿什利·詹森 Ashley Jensen (id:1105399)

伊万·麦金托什 Ewen MacIntosh (id:1014417)

李·马奇戴 Lee Magiday (id:1382952)

塞西·邓普西 Ceci Dempsey (id:1382951)

欧格斯·兰斯莫斯 Yorgos Lanthimos (id:1289439)

本杰明·布里顿 Benjamin Britten (id:1042545)

艾米·艾什沃斯 Amy Ashworth (id:1468406)

Thimios Bakatakis Thimios Bakatakis (id:1367620)

吉娜·杰 Jina Jay (id:1395105)

◎简 介

故事背景设定在一个虚构的近未来社会,居民的婚恋受到严格控制管理。根据规定,单身者要被集中移送到一个酒店里,他们必须要在45天之内找到一个匹配的伴侣,失败者会被转化为一种自选的动物,并被流放到森林中。为了延长45天的期限,酒店里的单身者们还会到森林里狩猎其他逃亡的单身者。

本片的主人公大卫(柯林·法瑞尔 Colin Farrell 饰)与一批单身者一同被送到酒店,他忍受着这里的各种严苛规定,同时也积极在酒店提供的各式各样的相亲场合中寻找伴侣。眼看期限将至,大卫还没有找到合适的伴侣。尝试和一个女人配对失败后,他逃到了酒店外面的森林,逃亡的单身者居住的地方。然而,在这个单身者反抗酒店制度的栖息地里,又有着另一套截然不同的制度……

◎获奖情况 (共17项)

第89届奥斯卡金像奖 (2017)

最佳原创剧本(提名)

第68届戛纳电影节 (2015)

主竞赛单元 金棕榈奖(提名)

└──欧格斯·兰斯莫斯 (id:1289439)

主竞赛单元 评审团奖

└──欧格斯·兰斯莫斯 (id:1289439)

第74届金球奖 (2017)

电影类 音乐/喜剧片最佳男主角(提名)

└──科林·法瑞尔 (id:1084255)

第69届英国电影学院奖 (2016)

电影奖 最佳英国影片(提名)

第67届美国剪辑工会奖 (2017)

音乐/喜剧片最佳剪辑(提名)

第22届美国评论家选择电影奖 (2017)

最佳原创剧本(提名)

第18届英国独立电影奖 (2015)

最佳女配角

└──奥利维娅·科尔曼 (id:1004900)

第21届金卫星奖 (2017)

电影部门 最佳原创剧本(提名)

第15届华盛顿影评人协会奖 (2016)

最佳原创剧本(提名)

第42届洛杉矶影评人协会奖 (2016)

最佳剧本

第29届芝加哥影评人协会奖 (2016)

最佳男主角(提名)

└──科林·法瑞尔 (id:1084255)

最佳原创剧本(提名)

第20届美国在线影评人协会奖 (2017)

最佳原创剧本(提名)

第19届美国在线影评人协会奖 (2015)

最佳非北美上映影片

第2届豆瓣电影年度榜单 (2015)

评分最高的欧洲电影(提名)

第6届豆瓣电影鑫像奖 (2016)

鑫豆单元 最佳爱情片(提名)

  1. ##### MediaInfo ######

  2. General

  3. Unique ID : 59974300411254476670281863537353702820 (0x2D1EA14E9944C7115710B44C12523DA4)

  4. Complete name : The.Lobster.2015.BluRay.1080p.DTS-HD.MA5.1.x265.10bit-BeiTai.mkv

  5. Format : Matroska

  6. Format version : Version 4

  7. File size : 8.78 GiB

  8. Duration : 1 h 58 min

  9. Overall bit rate mode : Variable

  10. Overall bit rate : 10.6 Mb/s

  11. Encoded date : UTC 2022-04-22 04:24:01

  12. Writing application : mkvmerge v49.0.0 ('Sick Of Losing Soulmates') 64-bit

  13. Writing library : libebml v1.4.0 + libmatroska v1.6.1

  14. Video

  15. ID : 1

  16. Format : HEVC

  17. Format/Info : High Efficiency Video Coding

  18. Format profile : Main [email protected]@High

  19. Codec ID : V_MPEGH/ISO/HEVC

  20. Duration : 1 h 58 min

  21. Bit rate : 8 684 kb/s

  22. Width : 1 920 pixels

  23. Height : 1 038 pixels

  24. Display aspect ratio : 1.85:1

  25. Frame rate mode : Constant

  26. Frame rate : 24.000 FPS

  27. Color space : YUV

  28. Chroma subsampling : 4:2:0

  29. Bit depth : 10 bits

  30. Bits/(Pixel*Frame) : 0.182

  31. Stream size : 7.18 GiB (82%)

  32. Title : HEVC, [email protected]@High, 24 fps @ 8684 kbps

  33. Writing library : x265 3.5+36-1f2c8da77:[Windows][GCC 11.2.0][64 bit] 10bit

  34. Encoding settings : cpuid=533541111039 / frame-threads=4 / numa-pools=16 / wpp / pmode / pme / no-psnr / no-ssim / log-level=2 / input-csp=1 / input-res=1920x1038 / interlace=0 / total-frames=170556 / level-idc=51 / high-tier=1 / uhd-bd=0 / ref=5 / no-allow-non-conformance / no-repeat-headers / annexb / no-aud / no-eob / no-eos / no-hrd / info / hash=0 / no-temporal-layers / open-gop / min-keyint=24 / keyint=240 / gop-lookahead=0 / bframes=6 / b-adapt=2 / b-pyramid / bframe-bias=0 / rc-lookahead=40 / lookahead-slices=0 / NTMzNTQ=uuDQuD2mJt9fsCf / scenecut=40 / no-hist-scenecut / radl=0 / no-splice / no-intra-refresh / ctu=32 / min-cu-size=8 / no-rect / no-amp / max-tu-size=32 / tu-inter-depth=3 / tu-intra-depth=3 / limit-tu=4 / rdoq-level=2 / dynamic-rd=0.00 / no-ssim-rd / signhide / no-tskip / nr-intra=0 / nr-inter=0 / no-constrained-intra / no-strong-intra-smoothing / max-merge=4 / limit-refs=1 / limit-modes / me=3 / subme=4 / merange=25 / temporal-mvp / no-frame-dup / no-hme / weightp / weightb / no-analyze-src-pics / deblock=-3:-3 / no-sao / no-sao-non-deblock / rd=6 / selective-sao=0 / no-early-skip / rskip / no-fast-intra / no-tskip-fast / no-cu-lossless / b-intra / no-splitrd-skip / rdpenalty=0 / psy-rd=2.00 / psy-rdoq=1.00 / no-rd-refine / no-lossless / cbqpoffs=0 / crqpoffs=0 / rc=crf / crf=18.5 / qcomp=0.65 / qpstep=4 / stats-write=0 / stats-read=0 / vbv-maxrate=80000 / vbv-bufsize=80000 / vbv-init=0.9 / min-vbv-fullness=50.0 / max-vbv-fullness=80.0 / crf-max=0.0 / crf-min=0.0 / ipratio=1.40 / pbratio=1.30 / aq-mode=2 / aq-strength=0.85 / cutree / zone-count=0 / no-strict-cbr / qg-size=32 / no-rc-grain / qpmax=69 / qpmin=0 / no-const-vbv / sar=1 / overscan=0 / videoformat=5 / range=0 / colorprim=1 / transfer=1 / colormatrix=1 / chromaloc=0 / display-window=0 / cll=0,0 / min-luma=0 / max-luma=1023 / log2-max-poc-lsb=8 / vui-timing-info / vui-hrd-info / slices=1 / no-opt-qp-pps / no-opt-ref-list-length-pps / no-multi-pass-opt-rps / scenecut-bias=0.05 / hist-threshold=0.03 / no-opt-cu-delta-qp / no-aq-motion / no-hdr10 / no-hdr10-opt / no-dhdr10-opt / no-idr-recovery-sei / analysis-reuse-level=0 / analysis-save-reuse-level=0 / analysis-load-reuse-level=0 / scale-factor=0 / refine-intra=0 / refine-inter=0 / refine-mv=1 / refine-ctu-distortion=0 / no-limit-sao / ctu-info=0 / no-lowpass-dct / refine-analysis-type=0 / copy-pic=1 / max-ausize-factor=1.0 / no-dynamic-refine / no-single-sei / no-hevc-aq / no-svt / no-field / qp-adaptation-range=1.00 / scenecut-aware-qp=0conformance-window-offsets / right=0 / bottom=0 / NTMzNTQ= / decoder-max-rate=0 / no-vbv-live-multi-pass

  35. Language : English

  36. Default : Yes

  37. Forced : No

  38. Color range : Limited

  39. Color primaries : BT.709

  40. Transfer characteristics : BT.709

  41. Matrix coefficients : BT.709

  42. Audio

  43. ID : 2

  44. Format : DTS XLL

  45. Format/Info : Digital Theater Systems

  46. Commercial name : DTS-HD Master Audio

  47. Codec ID : A_DTS

  48. Duration : 1 h 58 min

  49. Bit rate mode : Variable

  50. Bit rate : 1 872 kb/s

  51. Channel(s) : 6 channels

  52. Channel layout : C L R Ls Rs LFE

  53. Sampling rate : 48.0 kHz

  54. Frame rate : 93.750 FPS (512 SPF)

  55. Bit depth : 16 bits

  56. Compression mode : Lossless

  57. Stream size : 1.55 GiB (18%)

  58. Title : English DTS-HD Master Audio 5.1 @ 1872 kbps

  59. Language : English

  60. Default : Yes

  61. Forced : No

  62. Text #1

  63. ID : 3

  64. Format : PGS

  65. Codec ID : S_HDMV/PGS

  66. Codec ID/Info : Picture based subtitle format used on BDs/HD-DVDs

  67. Duration : 1 h 52 min

  68. Bit rate : 33.0 kb/s

  69. Count of elements : 2350

  70. Stream size : 26.6 MiB (0%)

  71. Title : Eng/SUP

  72. Language : English

  73. Default : No

  74. Forced : No

  75. Text #2

  76. ID : 4

  77. Format : PGS

  78. Codec ID : S_HDMV/PGS

  79. Codec ID/Info : Picture based subtitle format used on BDs/HD-DVDs

  80. Duration : 1 h 51 min

  81. Bit rate : 26.0 kb/s

  82. Count of elements : 2672

  83. Stream size : 20.8 MiB (0%)

  84. Title : Cht/SUP 原盘繁体

  85. Language : Chinese

  86. Default : Yes

  87. Forced : No

  88. Menu

  89. 00:00:00.000 : en:第 01 章

  90. 00:13:57.375 : en:第 02 章

  91. 00:25:12.875 : en:第 03 章

  92. 00:38:27.667 : en:第 04 章

  93. 00:50:23.125 : en:第 05 章

  94. 01:08:18.250 : en:第 06 章

  95. 01:23:11.958 : en:第 07 章

  96. 01:39:47.042 : en:第 08 章


复制代码



文件下载


除非特别注明,本文『龙虾[繁英字幕][email protected]Q.COM 8.78GB』来源于互联网机器人自动抓取,非本站原创。 浮游电影网不对本文拥有版权,如有侵犯,请联系邮箱:fuyouu#yandex.com[#换成@]投诉。我们会在15个工作日内删除。 但烦请转载时请标明出处:“本文转载于『浮游电影网』,原文地址:https://www.fuyouu.com/21626.html

评论吧骚年!

发表你的见解   

昵称*

E-mail*(建议输入,以便收到博主回复的提示邮件)

验证码*

您可以使用eMule或eMule Mod(Windows)、aMule(Win、Linux、Mac)等软件下载eD2k链接。。
eMule收藏集(.emulecollection)文件是您选中的所有链接的列表文件。eMule可以直接下载它们。
按住SHIFT键选择可以选中多个选择框。
可用文件名和大小选择器来选择文件。
文件名选择器帮您根据文件名称或后缀来选择文件。不分大小写。
符号使用:
和:空格( )、+
不包含:-
或:|
转义:一对英文引号("");
匹配开头:^
匹配结尾:$
例如:
选中所有名称中包含有“eMule”或“0.49c”字眼,但不包含有“exe”字眼的:emule|0.49c -exe
选中所有名称的开头是“eMule”,结尾是“0.49c”的:^emule 0.49c$
选中所有名称中带有“eMule 0.49c”的(必须是“eMule 0.49c”,中间没有别的字符,不能是“eMule fake 0.49c”),需要转义:"emule 0.49c"
大小选择器帮您根据文件大小选择文件。