当前位置: 首页 >> 欧美电影 >> 探险家:最后的特普伊山[中文字幕].Explorer.The.Last.Tepui.2022.2160p.WEB-DL.DDP5.1.DV.MKV.x265-MZABI 6.39GB >> 正文

探险家:最后的特普伊山[中文字幕].Explorer.The.Last.Tepui.2022.2160p.WEB-DL.DDP5.1.DV.MKV.x265-MZABI 6.39GB

2022年04月23日 00:49:58     电影发布:来源于网络     电影分类:欧美电影     评论(0)    

探险家:最后的特普伊山[中文字幕].Explorer.The.Last.Tepui.2022.2160p.WEB DL.DDP5.1.DV.MKV.x265 MZABI 6.39GB  欧美电影  第1张

◎译 名 探险家:最后的特普伊山 / 探险家:攀登平顶山(台)

◎片 名 Explorer: The Last Tepui

◎年 代 2022

◎产 地 美国

◎类 别 纪录片

◎语 言 英语

◎上映日期 2022-04-22(美国网络)

◎IMDb链接 https://www.imdb.com/title/tt17048366/

◎豆瓣链接 https://movie.douban.com/subject/35859556/

◎片 长 55分钟

◎导 演 雷纳·奥斯托克 Renan Ozturk (id:1353326)

◎演 员 亚历克斯·霍诺德 Alex Honnold (id:1362721)

◎简 介

攀登家于1000英尺陡峭悬崖的真实体验,为求于悬崖壁上寻找未被发现的动物物种。

  1. Video

  2. ID : 1

  3. Format : HEVC

  4. Format/Info : High Efficiency Video Coding

  5. Format profile : Main [email protected]@High

  6. HDR format : Dolby Vision, Version 1.0, dvhe.05.06, BL+RPU

  7. Codec ID : V_MPEGH/ISO/HEVC

  8. Duration : 54 min 47 s

  9. Bit rate : 16.4 Mb/s

  10. Width : 3 840 pixels

  11. Height : 2 160 pixels

  12. Display aspect ratio : 16:9

  13. Frame rate mode : Constant

  14. Frame rate : 23.976 (24000/1001/53354) FPS

  15. Color space : YUV

  16. Chroma subsampling : 4:2:0

  17. Bit depth : 10 bits

  18. Bits/(Pixel*Frame) : 0.083

  19. Stream size : 6.29 GiB (98%)

  20. Language : English

  21. Default : Yes

  22. Forced : No

  23. Color range : Full


  24. Audio

  25. ID : 2

  26. Format : E-AC-3

  27. Format/Info : Enhanced AC-3

  28. Commercial name : Dolby Digital Plus

  29. Codec ID : A_EAC3

  30. Duration : 54 min 47 s

  31. Bit rate mode : Constant

  32. Bit rate : 256 kb/s

  33. Channel(s) : 6 channels

  34. Channel layout : L R C LFE Ls Rs

  35. Sampling rate : 48.0 kHz

  36. Frame rate : 31.250 FPS (1536 SPF)

  37. Compression mode : Lossy

  38. Stream size : 100 MiB (2%)

  39. Language : English

  40. Service kind : Complete Main

  41. Default : Yes

  42. Forced : No


  43. Text #1

  44. ID : 3

  45. Format : UTF-8

  46. Codec ID : S_TEXT/UTF8

  47. Codec ID/Info : UTF-8 Plain Text

  48. Duration : 53 min 22 s

  49. Bit rate : 88 b/s

  50. Count of elements : 769

  51. Stream size : 34.8 KiB (0%)

  52. Title : SDH

  53. Language : English

  54. Default : No

  55. Forced : No


  56. Text #2

  57. ID : 4

  58. Format : UTF-8

  59. Codec ID : S_TEXT/UTF8

  60. Codec ID/Info : UTF-8 Plain Text

  61. Duration : 53 min 22 s

  62. Bit rate : 81 b/s

  63. Count of elements : 720

  64. Stream size : 31.7 KiB (0%)

  65. Language : English

  66. Default : No

  67. Forced : No


  68. Text #3

  69. ID : 5

  70. Format : UTF-8

  71. Codec ID : S_TEXT/UTF8

  72. Codec ID/Info : UTF-8 Plain Text

  73. Duration : 54 min 32 s

  74. Bit rate : 68 b/s

  75. Count of elements : 679

  76. Stream size : 27.2 KiB (0%)

  77. Language : Czech

  78. Default : No

  79. Forced : No


  80. Text #4

  81. ID : 6

  82. Format : UTF-8

  83. Codec ID : S_TEXT/UTF8

  84. Codec ID/Info : UTF-8 Plain Text

  85. Duration : 54 min 32 s

  86. Bit rate : 72 b/s

  87. Count of elements : 704

  88. Stream size : 29.1 KiB (0%)

  89. Language : Danish

  90. Default : No

  91. Forced : No


  92. Text #5

  93. ID : 7

  94. Format : UTF-8

  95. Codec ID : S_TEXT/UTF8

  96. Codec ID/Info : UTF-8 Plain Text

  97. Duration : 54 min 32 s

  98. Bit rate : 77 b/s

  99. Count of elements : 714

  100. Stream size : 30.9 KiB (0%)

  101. Language : German

  102. Default : No

  103. Forced : No


  104. Text #6

  105. ID : 8

  106. Format : UTF-8

  107. Codec ID : S_TEXT/UTF8

  108. Codec ID/Info : UTF-8 Plain Text

  109. Duration : 54 min 32 s

  110. Bit rate : 133 b/s

  111. Count of elements : 708

  112. Stream size : 53.4 KiB (0%)

  113. Language : Greek

  114. Default : No

  115. Forced : No


  116. Text #7

  117. ID : 9

  118. Format : UTF-8

  119. Codec ID : S_TEXT/UTF8

  120. Codec ID/Info : UTF-8 Plain Text

  121. Duration : 54 min 32 s

  122. Bit rate : 69 b/s

  123. Count of elements : 717

  124. Stream size : 27.6 KiB (0%)

  125. Language : Spanish

  126. Default : No

  127. Forced : No


  128. Text #8

  129. ID : 10

  130. Format : UTF-8

  131. Codec ID : S_TEXT/UTF8

  132. Codec ID/Info : UTF-8 Plain Text

  133. Duration : 54 min 32 s

  134. Bit rate : 76 b/s

  135. Count of elements : 751

  136. Stream size : 30.5 KiB (0%)

  137. Title : Latin American

  138. Language : Spanish

  139. Default : No

  140. Forced : No


  141. Text #9

  142. ID : 11

  143. Format : UTF-8

  144. Codec ID : S_TEXT/UTF8

  145. Codec ID/Info : UTF-8 Plain Text

  146. Duration : 54 min 32 s

  147. Bit rate : 59 b/s

  148. Count of elements : 703

  149. Stream size : 23.8 KiB (0%)

  150. Language : Finnish

  151. Default : No

  152. Forced : No


  153. Text #10

  154. ID : 12

  155. Format : UTF-8

  156. Codec ID : S_TEXT/UTF8

  157. Codec ID/Info : UTF-8 Plain Text

  158. Duration : 54 min 32 s

  159. Bit rate : 79 b/s

  160. Count of elements : 716

  161. Stream size : 31.6 KiB (0%)

  162. Language : French

  163. Default : No

  164. Forced : No


  165. Text #11

  166. ID : 13

  167. Format : UTF-8

  168. Codec ID : S_TEXT/UTF8

  169. Codec ID/Info : UTF-8 Plain Text

  170. Duration : 54 min 32 s

  171. Bit rate : 77 b/s

  172. Count of elements : 716

  173. Stream size : 30.8 KiB (0%)

  174. Language : Hungarian

  175. Default : No

  176. Forced : No


  177. Text #12

  178. ID : 14

  179. Format : UTF-8

  180. Codec ID : S_TEXT/UTF8

  181. Codec ID/Info : UTF-8 Plain Text

  182. Duration : 54 min 32 s

  183. Bit rate : 72 b/s

  184. Count of elements : 713

  185. Stream size : 28.8 KiB (0%)

  186. Language : Italian

  187. Default : No

  188. Forced : No


  189. Text #13

  190. ID : 15

  191. Format : UTF-8

  192. Codec ID : S_TEXT/UTF8

  193. Codec ID/Info : UTF-8 Plain Text

  194. Duration : 54 min 32 s

  195. Bit rate : 70 b/s

  196. Count of elements : 712

  197. Stream size : 28.0 KiB (0%)

  198. Language : Japanese

  199. Default : No

  200. Forced : No


  201. Text #14

  202. ID : 16

  203. Format : UTF-8

  204. Codec ID : S_TEXT/UTF8

  205. Codec ID/Info : UTF-8 Plain Text

  206. Duration : 54 min 38 s

  207. Bit rate : 80 b/s

  208. Count of elements : 742

  209. Stream size : 32.0 KiB (0%)

  210. Language : Korean

  211. Default : No

  212. Forced : No


  213. Text #15

  214. ID : 17

  215. Format : UTF-8

  216. Codec ID : S_TEXT/UTF8

  217. Codec ID/Info : UTF-8 Plain Text

  218. Duration : 54 min 32 s

  219. Bit rate : 72 b/s

  220. Count of elements : 681

  221. Stream size : 29.0 KiB (0%)

  222. Language : Dutch

  223. Default : No

  224. Forced : No


  225. Text #16

  226. ID : 18

  227. Format : UTF-8

  228. Codec ID : S_TEXT/UTF8

  229. Codec ID/Info : UTF-8 Plain Text

  230. Duration : 54 min 32 s

  231. Bit rate : 72 b/s

  232. Count of elements : 714

  233. Stream size : 28.8 KiB (0%)

  234. Language : Norwegian

  235. Default : No

  236. Forced : No


  237. Text #17

  238. ID : 19

  239. Format : UTF-8

  240. Codec ID : S_TEXT/UTF8

  241. Codec ID/Info : UTF-8 Plain Text

  242. Duration : 54 min 32 s

  243. Bit rate : 70 b/s

  244. Count of elements : 692

  245. Stream size : 28.2 KiB (0%)

  246. Language : Polish

  247. Default : No

  248. Forced : No


  249. Text #18

  250. ID : 20

  251. Format : UTF-8

  252. Codec ID : S_TEXT/UTF8

  253. Codec ID/Info : UTF-8 Plain Text

  254. Duration : 54 min 32 s

  255. Bit rate : 66 b/s

  256. Count of elements : 710

  257. Stream size : 26.7 KiB (0%)

  258. Language : Portuguese

  259. Default : No

  260. Forced : No


  261. Text #19

  262. ID : 21

  263. Format : UTF-8

  264. Codec ID : S_TEXT/UTF8

  265. Codec ID/Info : UTF-8 Plain Text

  266. Duration : 54 min 32 s

  267. Bit rate : 69 b/s

  268. Count of elements : 710

  269. Stream size : 27.9 KiB (0%)

  270. Title : Brazilian

  271. Language : Portuguese

  272. Default : No

  273. Forced : No


  274. Text #20

  275. ID : 22

  276. Format : UTF-8

  277. Codec ID : S_TEXT/UTF8

  278. Codec ID/Info : UTF-8 Plain Text

  279. Duration : 54 min 32 s

  280. Bit rate : 78 b/s

  281. Count of elements : 706

  282. Stream size : 31.5 KiB (0%)

  283. Language : Romanian

  284. Default : No

  285. Forced : No


  286. Text #21

  287. ID : 23

  288. Format : UTF-8

  289. Codec ID : S_TEXT/UTF8

  290. Codec ID/Info : UTF-8 Plain Text

  291. Duration : 54 min 32 s

  292. Bit rate : 74 b/s

  293. Count of elements : 715

  294. Stream size : 29.7 KiB (0%)

  295. Language : Slovak

  296. Default : No

  297. Forced : No


  298. Text #22

  299. ID : 24

  300. Format : UTF-8

  301. Codec ID : S_TEXT/UTF8

  302. Codec ID/Info : UTF-8 Plain Text

  303. Duration : 54 min 32 s

  304. Bit rate : 70 b/s

  305. Count of elements : 643

  306. Stream size : 28.2 KiB (0%)

  307. Language : Swedish

  308. Default : No

  309. Forced : No


  310. Text #23

  311. ID : 25

  312. Format : UTF-8

  313. Codec ID : S_TEXT/UTF8

  314. Codec ID/Info : UTF-8 Plain Text

  315. Duration : 54 min 32 s

  316. Bit rate : 75 b/s

  317. Count of elements : 712

  318. Stream size : 30.2 KiB (0%)

  319. Language : Turkish

  320. Default : No

  321. Forced : No


  322. Text #24

  323. ID : 26

  324. Format : UTF-8

  325. Codec ID : S_TEXT/UTF8

  326. Codec ID/Info : UTF-8 Plain Text

  327. Duration : 54 min 38 s

  328. Bit rate : 62 b/s

  329. Count of elements : 718

  330. Stream size : 24.9 KiB (0%)

  331. Title : Hong Kong

  332. Language : Chinese

  333. Default : No

  334. Forced : No


  335. Text #25

  336. ID : 27

  337. Format : UTF-8

  338. Codec ID : S_TEXT/UTF8

  339. Codec ID/Info : UTF-8 Plain Text

  340. Duration : 54 min 32 s

  341. Bit rate : 60 b/s

  342. Count of elements : 717

  343. Stream size : 24.3 KiB (0%)

  344. Title : Simplified

  345. Language : Chinese

  346. Default : No

  347. Forced : No


  348. Text #26

  349. ID : 28

  350. Format : UTF-8

  351. Codec ID : S_TEXT/UTF8

  352. Codec ID/Info : UTF-8 Plain Text

  353. Duration : 54 min 38 s

  354. Bit rate : 62 b/s

  355. Count of elements : 718

  356. Stream size : 24.9 KiB (0%)

  357. Title : Traditional

  358. Language : Chinese

  359. Default : No

  360. Forced : No

复制代码

探险家:最后的特普伊山[中文字幕].Explorer.The.Last.Tepui.2022.2160p.WEB DL.DDP5.1.DV.MKV.x265 MZABI 6.39GB  欧美电影  第2张 探险家:最后的特普伊山[中文字幕].Explorer.The.Last.Tepui.2022.2160p.WEB DL.DDP5.1.DV.MKV.x265 MZABI 6.39GB  欧美电影  第3张 探险家:最后的特普伊山[中文字幕].Explorer.The.Last.Tepui.2022.2160p.WEB DL.DDP5.1.DV.MKV.x265 MZABI 6.39GB  欧美电影  第4张



文件下载


除非特别注明,本文『探险家:最后的特普伊山[中文字幕].Explorer.The.Last.Tepui.2022.2160p.WEB-DL.DDP5.1.DV.MKV.x265-MZABI 6.39GB』来源于互联网机器人自动抓取,非本站原创。 浮游电影网不对本文拥有版权,如有侵犯,请联系邮箱:fuyouu#yandex.com[#换成@]投诉。我们会在15个工作日内删除。 但烦请转载时请标明出处:“本文转载于『浮游电影网』,原文地址:https://www.fuyouu.com/21623.html

评论吧骚年!

发表你的见解   

昵称*

E-mail*(建议输入,以便收到博主回复的提示邮件)

验证码*

您可以使用eMule或eMule Mod(Windows)、aMule(Win、Linux、Mac)等软件下载eD2k链接。。
eMule收藏集(.emulecollection)文件是您选中的所有链接的列表文件。eMule可以直接下载它们。
按住SHIFT键选择可以选中多个选择框。
可用文件名和大小选择器来选择文件。
文件名选择器帮您根据文件名称或后缀来选择文件。不分大小写。
符号使用:
和:空格( )、+
不包含:-
或:|
转义:一对英文引号("");
匹配开头:^
匹配结尾:$
例如:
选中所有名称中包含有“eMule”或“0.49c”字眼,但不包含有“exe”字眼的:emule|0.49c -exe
选中所有名称的开头是“eMule”,结尾是“0.49c”的:^emule 0.49c$
选中所有名称中带有“eMule 0.49c”的(必须是“eMule 0.49c”,中间没有别的字符,不能是“eMule fake 0.49c”),需要转义:"emule 0.49c"
大小选择器帮您根据文件大小选择文件。