当前位置: 首页 >> 海外电影 >> 这个高中没有鬼2[中文字幕].Make.Me.Shudder.2.Shudder.Me.Mae.Nak.2014.THAI.1080p.NF.WEBRip.DDP5.1.x264-HG 3.89GB >> 正文

这个高中没有鬼2[中文字幕].Make.Me.Shudder.2.Shudder.Me.Mae.Nak.2014.THAI.1080p.NF.WEBRip.DDP5.1.x264-HG 3.89GB

2022年04月23日 00:46:42     电影发布:来源于网络     电影分类:海外电影     评论(0)    

这个高中没有鬼2[中文字幕].Make.Me.Shudder.2.Shudder.Me.Mae.Nak.2014.THAI.1080p.NF.WEBRip.DDP5.1.x264 HG 3.89GB  海外电影  第1张

◎译 名 这个高中没有鬼2 / Mathayom pak ma tha Mae Nak / Morhoktubha 2

◎片 名 ?.6/5???????????????

◎年 代 2014

◎产 地 泰国

◎类 别 喜剧 / 惊悚 / 恐怖

◎语 言 泰语

◎上映日期 2014-04-10(泰国)

◎IMDb链接 https://www.imdb.com/title/tt3612432/

◎豆瓣评分 5.5/10 (718人评价)

◎豆瓣链接 https://movie.douban.com/subject/25872566/

◎导 演 普安农 Poj Arnon (id:1307490)

◎演 员 Pongpitch Preechaborisuthikul Pongpitch Preechaborisuthikul (id:1329025)

瓦妮达·特姆散纳波 Wanida Termthanaporn (id:1341245)

沪瓦隆·威伍飒 Bhuvadol Vejvongsa (id:1348116)

Biew Kittipat Samantrakulchai Biew Kittipat Samantrakulchai (id:1350264)

Kittipat Samarntragulchai Kittipat Samarntragulchai (id:1350270)

斯拉坡欧普·玛尼希坤 Siraphop Manithikhun (id:1448682)

塔皮.沃拉猜.斯利倥苏皖 Tape Worrachai Sirikongsuwan (id:1459195)

◎简 介

在经历了校园鬼话后,骚年们回来决定好好读书,不久后大学联考将至,骚年们听说有个学长在庙里祈福成功上了大学,为求考试顺利一群人在学长的带领下来到娜娜庙祈福,NICK在祈福时大放厥词。

在娜娜的指引下骚年们上了小船,果断的踏上了作死之路。等待他们的将是。

  1. Video

  2. ID : 1

  3. Format : AVC

  4. Format/Info : Advanced Video Codec

  5. Format profile : [email protected]

  6. Format settings : CABAC / 3 Ref Frames

  7. Format settings, CABAC : Yes

  8. Format settings, Reference frames : 3 frames

  9. Codec ID : V_MPEG4/ISO/AVC

  10. Duration : 1 h 54 min

  11. Bit rate mode : Variable

  12. Bit rate : 4 220 kb/s

  13. Maximum bit rate : 6 330 kb/s

  14. Width : 1 920 pixels

  15. Height : 1 080 pixels

  16. Display aspect ratio : 16:9

  17. Frame rate mode : Constant

  18. Frame rate : 25.000 FPS

  19. Color space : YUV

  20. Chroma subsampling : 4:2:0

  21. Bit depth : 8 bits

  22. Scan type : Progressive

  23. Bits/(Pixel*Frame) : 0.081

  24. Stream size : 3.37 GiB (87%)

  25. Writing library : x264 core 148 r2715 7e75228

  26. Encoding settings : cabac=1 / ref=3 / deblock=1:0:0 / analyse=0x1:0x111 / me=umh / subme=10 / psy=1 / psy_rd=1.00:0.00 / mixed_ref=1 / me_range=24 / chroma_me=1 / trellis=2 / 8x8dct=0 / cqm=0 / deadzone=21,11 / fast_pskip=1 / chroma_qp_offset=-2 / threads=8 / lookahead_threads=1 / sliced_threads=0 / nr=0 / decimate=1 / interlaced=0 / NTMzNTQ= / bluray_compat=0 / stitchable=1 / constrained_intra=0 / bframes=2 / b_pyramid=0 / b_adapt=2 / b_bias=0 / direct=3 / weightb=1 / open_gop=0 / weightp=2 / keyint=50 / keyint_min=26 / scenecut=0 / intra_refresh=0 / rc_lookahead=50 / rc=2pass / mbtree=1 / bitrate=4220 / ratetol=1.0 / qcomp=0.50 / qpmin=6 / qpmax=51 / qpstep=4 / cplxblur=20.0 / qblur=0.5 / vbv_maxrate=6330 / vbv_bufsize=8440 / nal_hrd=vbr / filler=0 / NTMzNTQ=LmsMAP37EqsCpk / ip_ratio=1.40 / aq=1:1.00

  27. Language : Thai

  28. Default : Yes

  29. Forced : No


  30. Audio

  31. ID : 2

  32. Format : E-AC-3

  33. Format/Info : Enhanced AC-3

  34. Commercial name : Dolby Digital Plus

  35. Codec ID : A_EAC3

  36. Duration : 1 h 54 min

  37. Bit rate mode : Constant

  38. Bit rate : 640 kb/s

  39. Channel(s) : 6 channels

  40. Channel layout : L R C LFE Ls Rs

  41. Sampling rate : 48.0 kHz

  42. Frame rate : 31.250 FPS (1536 SPF)

  43. Compression mode : Lossy

  44. Stream size : 525 MiB (13%)

  45. Language : Thai

  46. Service kind : Complete Main

  47. Default : Yes

  48. Forced : No


  49. Text #1

  50. ID : 3

  51. Format : UTF-8

  52. Codec ID : S_TEXT/UTF8

  53. Codec ID/Info : UTF-8 Plain Text

  54. Duration : 1 h 54 min

  55. Bit rate : 45 b/s

  56. Count of elements : 1570

  57. Stream size : 38.3 KiB (0%)

  58. Language : English

  59. Default : Yes

  60. Forced : No


  61. Text #2

  62. ID : 4

  63. Format : UTF-8

  64. Codec ID : S_TEXT/UTF8

  65. Codec ID/Info : UTF-8 Plain Text

  66. Duration : 1 h 53 min

  67. Bit rate : 170 b/s

  68. Count of elements : 2282

  69. Stream size : 142 KiB (0%)

  70. Language : Thai

  71. Default : No

  72. Forced : No


  73. Text #3

  74. ID : 5

  75. Format : UTF-8

  76. Codec ID : S_TEXT/UTF8

  77. Codec ID/Info : UTF-8 Plain Text

  78. Duration : 1 h 54 min

  79. Bit rate : 44 b/s

  80. Count of elements : 1593

  81. Stream size : 37.1 KiB (0%)

  82. Language : Chinese

  83. Default : No

  84. Forced : No


  85. Text #4

  86. ID : 6

  87. Format : UTF-8

  88. Codec ID : S_TEXT/UTF8

  89. Codec ID/Info : UTF-8 Plain Text

  90. Duration : 1 h 54 min

  91. Bit rate : 42 b/s

  92. Count of elements : 1591

  93. Stream size : 35.6 KiB (0%)

  94. Language : Chinese

  95. Default : No

  96. Forced : No

复制代码

这个高中没有鬼2[中文字幕].Make.Me.Shudder.2.Shudder.Me.Mae.Nak.2014.THAI.1080p.NF.WEBRip.DDP5.1.x264 HG 3.89GB  海外电影  第2张 这个高中没有鬼2[中文字幕].Make.Me.Shudder.2.Shudder.Me.Mae.Nak.2014.THAI.1080p.NF.WEBRip.DDP5.1.x264 HG 3.89GB  海外电影  第3张 这个高中没有鬼2[中文字幕].Make.Me.Shudder.2.Shudder.Me.Mae.Nak.2014.THAI.1080p.NF.WEBRip.DDP5.1.x264 HG 3.89GB  海外电影  第4张



文件下载


除非特别注明,本文『这个高中没有鬼2[中文字幕].Make.Me.Shudder.2.Shudder.Me.Mae.Nak.2014.THAI.1080p.NF.WEBRip.DDP5.1.x264-HG 3.89GB』来源于互联网机器人自动抓取,非本站原创。 浮游电影网不对本文拥有版权,如有侵犯,请联系邮箱:fuyouu#yandex.com[#换成@]投诉。我们会在15个工作日内删除。 但烦请转载时请标明出处:“本文转载于『浮游电影网』,原文地址:https://www.fuyouu.com/21620.html

评论吧骚年!

发表你的见解   

昵称*

E-mail*(建议输入,以便收到博主回复的提示邮件)

验证码*

您可以使用eMule或eMule Mod(Windows)、aMule(Win、Linux、Mac)等软件下载eD2k链接。。
eMule收藏集(.emulecollection)文件是您选中的所有链接的列表文件。eMule可以直接下载它们。
按住SHIFT键选择可以选中多个选择框。
可用文件名和大小选择器来选择文件。
文件名选择器帮您根据文件名称或后缀来选择文件。不分大小写。
符号使用:
和:空格( )、+
不包含:-
或:|
转义:一对英文引号("");
匹配开头:^
匹配结尾:$
例如:
选中所有名称中包含有“eMule”或“0.49c”字眼,但不包含有“exe”字眼的:emule|0.49c -exe
选中所有名称的开头是“eMule”,结尾是“0.49c”的:^emule 0.49c$
选中所有名称中带有“eMule 0.49c”的(必须是“eMule 0.49c”,中间没有别的字符,不能是“eMule fake 0.49c”),需要转义:"emule 0.49c"
大小选择器帮您根据文件大小选择文件。