当前位置: 首页 >> 欧美电影 >> 最大的小小农场:回归[中文字幕].The.Biggest.Little.Farm.The.Return.2022.720p.DSNP.WEBRip.DDP5.1.x264-playWEB 825.39 >> 正文

最大的小小农场:回归[中文字幕].The.Biggest.Little.Farm.The.Return.2022.720p.DSNP.WEBRip.DDP5.1.x264-playWEB 825.39

2022年04月23日 00:45:44     电影发布:来源于网络     电影分类:欧美电影     评论(0)    

最大的小小农场:回归[中文字幕].The.Biggest.Little.Farm.The.Return.2022.720p.DSNP.WEBRip.DDP5.1.x264 playWEB 825.39  欧美电影  第1张

◎译 名 最大的小小农场:回归 / 我家有个开心农场:重返伊甸园(台)

◎片 名 The Biggest Little Farm: The Return

◎年 代 2022

◎产 地 美国

◎类 别 剧情 / 纪录片

◎语 言 英语

◎上映日期 2022-04-22(美国网络)

◎IMDb链接 https://www.imdb.com/title/tt17048514/

◎豆瓣链接 https://movie.douban.com/subject/35859560/

◎演 员 约翰·切斯特 John Chester (id:1423135)

茉莉·切斯特 Molly Chester (id:1470170)

◎简 介

跟随约翰与茉莉长达10年时间的不懈旅程,见证将土地变成农场的神奇之旅。

  1. Video

  2. ID : 1

  3. Format : AVC

  4. Format/Info : Advanced Video Codec

  5. Format profile : [email protected]

  6. Format settings : CABAC / 4 Ref Frames

  7. Format settings, CABAC : Yes

  8. Format settings, Reference frames : 4 frames

  9. Codec ID : V_MPEG4/ISO/AVC

  10. Duration : 28 min 55 s

  11. Bit rate mode : Variable

  12. Bit rate : 3 728 kb/s

  13. Maximum bit rate : 6 375 kb/s

  14. Width : 1 280 pixels

  15. Height : 720 pixels

  16. Display aspect ratio : 16:9

  17. Frame rate mode : Constant

  18. Frame rate : 23.976 (24000/1001/53354) FPS

  19. Color space : YUV

  20. Chroma subsampling : 4:2:0

  21. Bit depth : 8 bits

  22. Scan type : Progressive

  23. Bits/(Pixel*Frame) : 0.169

  24. Stream size : 771 MiB (93%)

  25. Language : English

  26. Default : Yes

  27. Forced : No

  28. Color range : Limited

  29. Color primaries : BT.709

  30. Transfer characteristics : BT.709

  31. Matrix coefficients : BT.709


  32. Audio

  33. ID : 2

  34. Format : E-AC-3

  35. Format/Info : Enhanced AC-3

  36. Commercial name : Dolby Digital Plus

  37. Codec ID : A_EAC3

  38. Duration : 28 min 55 s

  39. Bit rate mode : Constant

  40. Bit rate : 256 kb/s

  41. Channel(s) : 6 channels

  42. Channel layout : L R C LFE Ls Rs

  43. Sampling rate : 48.0 kHz

  44. Frame rate : 31.250 FPS (1536 SPF)

  45. Compression mode : Lossy

  46. Stream size : 53.0 MiB (6%)

  47. Language : English

  48. Service kind : Complete Main

  49. Default : Yes

  50. Forced : No


  51. Text #1

  52. ID : 3

  53. Format : UTF-8

  54. Codec ID : S_TEXT/UTF8

  55. Codec ID/Info : UTF-8 Plain Text

  56. Duration : 27 min 57 s

  57. Bit rate : 52 b/s

  58. Count of elements : 334

  59. Stream size : 10.8 KiB (0%)

  60. Language : English

  61. Default : No

  62. Forced : No


  63. Text #2

  64. ID : 4

  65. Format : UTF-8

  66. Codec ID : S_TEXT/UTF8

  67. Codec ID/Info : UTF-8 Plain Text

  68. Duration : 28 min 20 s

  69. Bit rate : 61 b/s

  70. Count of elements : 381

  71. Stream size : 12.8 KiB (0%)

  72. Title : SDH

  73. Language : English

  74. Default : No

  75. Forced : No


  76. Text #3

  77. ID : 5

  78. Format : UTF-8

  79. Codec ID : S_TEXT/UTF8

  80. Codec ID/Info : UTF-8 Plain Text

  81. Duration : 28 min 25 s

  82. Bit rate : 49 b/s

  83. Count of elements : 333

  84. Stream size : 10.4 KiB (0%)

  85. Language : Czech

  86. Default : No

  87. Forced : No


  88. Text #4

  89. ID : 6

  90. Format : UTF-8

  91. Codec ID : S_TEXT/UTF8

  92. Codec ID/Info : UTF-8 Plain Text

  93. Duration : 28 min 25 s

  94. Bit rate : 52 b/s

  95. Count of elements : 334

  96. Stream size : 10.9 KiB (0%)

  97. Language : Danish

  98. Default : No

  99. Forced : No


  100. Text #5

  101. ID : 7

  102. Format : UTF-8

  103. Codec ID : S_TEXT/UTF8

  104. Codec ID/Info : UTF-8 Plain Text

  105. Duration : 28 min 25 s

  106. Bit rate : 55 b/s

  107. Count of elements : 330

  108. Stream size : 11.6 KiB (0%)

  109. Language : German

  110. Default : No

  111. Forced : No


  112. Text #6

  113. ID : 8

  114. Format : UTF-8

  115. Codec ID : S_TEXT/UTF8

  116. Codec ID/Info : UTF-8 Plain Text

  117. Duration : 28 min 25 s

  118. Bit rate : 87 b/s

  119. Count of elements : 328

  120. Stream size : 18.3 KiB (0%)

  121. Language : Greek

  122. Default : No

  123. Forced : No


  124. Text #7

  125. ID : 9

  126. Format : UTF-8

  127. Codec ID : S_TEXT/UTF8

  128. Codec ID/Info : UTF-8 Plain Text

  129. Duration : 28 min 25 s

  130. Bit rate : 54 b/s

  131. Count of elements : 338

  132. Stream size : 11.4 KiB (0%)

  133. Title : Latin America

  134. Language : Spanish

  135. Default : No

  136. Forced : No


  137. Text #8

  138. ID : 10

  139. Format : UTF-8

  140. Codec ID : S_TEXT/UTF8

  141. Codec ID/Info : UTF-8 Plain Text

  142. Duration : 28 min 25 s

  143. Bit rate : 48 b/s

  144. Count of elements : 333

  145. Stream size : 10.2 KiB (0%)

  146. Language : Spanish

  147. Default : No

  148. Forced : No


  149. Text #9

  150. ID : 11

  151. Format : UTF-8

  152. Codec ID : S_TEXT/UTF8

  153. Codec ID/Info : UTF-8 Plain Text

  154. Duration : 28 min 25 s

  155. Bit rate : 47 b/s

  156. Count of elements : 329

  157. Stream size : 9.93 KiB (0%)

  158. Language : Finnish

  159. Default : No

  160. Forced : No


  161. Text #10

  162. ID : 12

  163. Format : UTF-8

  164. Codec ID : S_TEXT/UTF8

  165. Codec ID/Info : UTF-8 Plain Text

  166. Duration : 28 min 25 s

  167. Bit rate : 54 b/s

  168. Count of elements : 322

  169. Stream size : 11.3 KiB (0%)

  170. Language : French

  171. Default : No

  172. Forced : No


  173. Text #11

  174. ID : 13

  175. Format : UTF-8

  176. Codec ID : S_TEXT/UTF8

  177. Codec ID/Info : UTF-8 Plain Text

  178. Duration : 28 min 25 s

  179. Bit rate : 50 b/s

  180. Count of elements : 329

  181. Stream size : 10.4 KiB (0%)

  182. Language : Hungarian

  183. Default : No

  184. Forced : No


  185. Text #12

  186. ID : 14

  187. Format : UTF-8

  188. Codec ID : S_TEXT/UTF8

  189. Codec ID/Info : UTF-8 Plain Text

  190. Duration : 28 min 25 s

  191. Bit rate : 53 b/s

  192. Count of elements : 332

  193. Stream size : 11.1 KiB (0%)

  194. Language : Italian

  195. Default : No

  196. Forced : No


  197. Text #13

  198. ID : 15

  199. Format : UTF-8

  200. Codec ID : S_TEXT/UTF8

  201. Codec ID/Info : UTF-8 Plain Text

  202. Duration : 28 min 25 s

  203. Bit rate : 52 b/s

  204. Count of elements : 326

  205. Stream size : 11.0 KiB (0%)

  206. Language : Japanese

  207. Default : No

  208. Forced : No


  209. Text #14

  210. ID : 16

  211. Format : UTF-8

  212. Codec ID : S_TEXT/UTF8

  213. Codec ID/Info : UTF-8 Plain Text

  214. Duration : 28 min 25 s

  215. Bit rate : 56 b/s

  216. Count of elements : 336

  217. Stream size : 11.8 KiB (0%)

  218. Language : Korean

  219. Default : No

  220. Forced : No


  221. Text #15

  222. ID : 17

  223. Format : UTF-8

  224. Codec ID : S_TEXT/UTF8

  225. Codec ID/Info : UTF-8 Plain Text

  226. Duration : 28 min 25 s

  227. Bit rate : 49 b/s

  228. Count of elements : 318

  229. Stream size : 10.4 KiB (0%)

  230. Language : Dutch

  231. Default : No

  232. Forced : No


  233. Text #16

  234. ID : 18

  235. Format : UTF-8

  236. Codec ID : S_TEXT/UTF8

  237. Codec ID/Info : UTF-8 Plain Text

  238. Duration : 28 min 25 s

  239. Bit rate : 50 b/s

  240. Count of elements : 327

  241. Stream size : 10.5 KiB (0%)

  242. Language : Norwegian

  243. Default : No

  244. Forced : No


  245. Text #17

  246. ID : 19

  247. Format : UTF-8

  248. Codec ID : S_TEXT/UTF8

  249. Codec ID/Info : UTF-8 Plain Text

  250. Duration : 28 min 25 s

  251. Bit rate : 49 b/s

  252. Count of elements : 322

  253. Stream size : 10.2 KiB (0%)

  254. Language : Polish

  255. Default : No

  256. Forced : No


  257. Text #18

  258. ID : 20

  259. Format : UTF-8

  260. Codec ID : S_TEXT/UTF8

  261. Codec ID/Info : UTF-8 Plain Text

  262. Duration : 28 min 25 s

  263. Bit rate : 51 b/s

  264. Count of elements : 332

  265. Stream size : 10.7 KiB (0%)

  266. Title : Brazil

  267. Language : Portuguese

  268. Default : No

  269. Forced : No


  270. Text #19

  271. ID : 21

  272. Format : UTF-8

  273. Codec ID : S_TEXT/UTF8

  274. Codec ID/Info : UTF-8 Plain Text

  275. Duration : 28 min 25 s

  276. Bit rate : 55 b/s

  277. Count of elements : 334

  278. Stream size : 11.5 KiB (0%)

  279. Language : Portuguese

  280. Default : No

  281. Forced : No


  282. Text #20

  283. ID : 22

  284. Format : UTF-8

  285. Codec ID : S_TEXT/UTF8

  286. Codec ID/Info : UTF-8 Plain Text

  287. Duration : 28 min 25 s

  288. Bit rate : 51 b/s

  289. Count of elements : 323

  290. Stream size : 10.7 KiB (0%)

  291. Language : Romanian

  292. Default : No

  293. Forced : No


  294. Text #21

  295. ID : 23

  296. Format : UTF-8

  297. Codec ID : S_TEXT/UTF8

  298. Codec ID/Info : UTF-8 Plain Text

  299. Duration : 28 min 25 s

  300. Bit rate : 47 b/s

  301. Count of elements : 334

  302. Stream size : 9.79 KiB (0%)

  303. Language : Slovak

  304. Default : No

  305. Forced : No


  306. Text #22

  307. ID : 24

  308. Format : UTF-8

  309. Codec ID : S_TEXT/UTF8

  310. Codec ID/Info : UTF-8 Plain Text

  311. Duration : 28 min 25 s

  312. Bit rate : 52 b/s

  313. Count of elements : 333

  314. Stream size : 10.9 KiB (0%)

  315. Language : Swedish

  316. Default : No

  317. Forced : No


  318. Text #23

  319. ID : 25

  320. Format : UTF-8

  321. Codec ID : S_TEXT/UTF8

  322. Codec ID/Info : UTF-8 Plain Text

  323. Duration : 28 min 25 s

  324. Bit rate : 49 b/s

  325. Count of elements : 334

  326. Stream size : 10.3 KiB (0%)

  327. Language : Turkish

  328. Default : No

  329. Forced : No


  330. Text #24

  331. ID : 26

  332. Format : UTF-8

  333. Codec ID : S_TEXT/UTF8

  334. Codec ID/Info : UTF-8 Plain Text

  335. Duration : 28 min 25 s

  336. Bit rate : 44 b/s

  337. Count of elements : 336

  338. Stream size : 9.28 KiB (0%)

  339. Title : Hong Kong

  340. Language : Chinese

  341. Default : No

  342. Forced : No


  343. Text #25

  344. ID : 27

  345. Format : UTF-8

  346. Codec ID : S_TEXT/UTF8

  347. Codec ID/Info : UTF-8 Plain Text

  348. Duration : 28 min 25 s

  349. Bit rate : 43 b/s

  350. Count of elements : 336

  351. Stream size : 9.04 KiB (0%)

  352. Title : Simplified

  353. Language : Chinese

  354. Default : No

  355. Forced : No


  356. Text #26

  357. ID : 28

  358. Format : UTF-8

  359. Codec ID : S_TEXT/UTF8

  360. Codec ID/Info : UTF-8 Plain Text

  361. Duration : 28 min 25 s

  362. Bit rate : 44 b/s

  363. Count of elements : 336

  364. Stream size : 9.22 KiB (0%)

  365. Title : Traditional

  366. Language : Chinese

  367. Default : No

  368. Forced : No


  369. Menu

  370. 00:28:27.583 : en:Credits

复制代码

最大的小小农场:回归[中文字幕].The.Biggest.Little.Farm.The.Return.2022.720p.DSNP.WEBRip.DDP5.1.x264 playWEB 825.39  欧美电影  第2张 最大的小小农场:回归[中文字幕].The.Biggest.Little.Farm.The.Return.2022.720p.DSNP.WEBRip.DDP5.1.x264 playWEB 825.39  欧美电影  第3张 最大的小小农场:回归[中文字幕].The.Biggest.Little.Farm.The.Return.2022.720p.DSNP.WEBRip.DDP5.1.x264 playWEB 825.39  欧美电影  第4张



文件下载


除非特别注明,本文『最大的小小农场:回归[中文字幕].The.Biggest.Little.Farm.The.Return.2022.720p.DSNP.WEBRip.DDP5.1.x264-playWEB 825.39』来源于互联网机器人自动抓取,非本站原创。 浮游电影网不对本文拥有版权,如有侵犯,请联系邮箱:fuyouu#yandex.com[#换成@]投诉。我们会在15个工作日内删除。 但烦请转载时请标明出处:“本文转载于『浮游电影网』,原文地址:https://www.fuyouu.com/21619.html

评论吧骚年!

发表你的见解   

昵称*

E-mail*(建议输入,以便收到博主回复的提示邮件)

验证码*

您可以使用eMule或eMule Mod(Windows)、aMule(Win、Linux、Mac)等软件下载eD2k链接。。
eMule收藏集(.emulecollection)文件是您选中的所有链接的列表文件。eMule可以直接下载它们。
按住SHIFT键选择可以选中多个选择框。
可用文件名和大小选择器来选择文件。
文件名选择器帮您根据文件名称或后缀来选择文件。不分大小写。
符号使用:
和:空格( )、+
不包含:-
或:|
转义:一对英文引号("");
匹配开头:^
匹配结尾:$
例如:
选中所有名称中包含有“eMule”或“0.49c”字眼,但不包含有“exe”字眼的:emule|0.49c -exe
选中所有名称的开头是“eMule”,结尾是“0.49c”的:^emule 0.49c$
选中所有名称中带有“eMule 0.49c”的(必须是“eMule 0.49c”,中间没有别的字符,不能是“eMule fake 0.49c”),需要转义:"emule 0.49c"
大小选择器帮您根据文件大小选择文件。