当前位置: 首页 >> 欧美电影 >> 海上钢琴师[中文字幕].The.Legend.of.1900.1998.1080p.BluRay.REMUX.VC-1.DTS-HD.MA.5.1-FGT 33.42GB >> 正文

海上钢琴师[中文字幕].The.Legend.of.1900.1998.1080p.BluRay.REMUX.VC-1.DTS-HD.MA.5.1-FGT 33.42GB

2022年04月23日 00:42:12     电影发布:来源于网络     电影分类:欧美电影     评论(0)    

海上钢琴师[中文字幕].The.Legend.of.1900.1998.1080p.BluRay.REMUX.VC 1.DTS HD.MA.5.1 FGT 33.42GB  欧美电影  第1张

◎译 名 海上钢琴师 / 声光伴我飞(港) / 一九零零的传奇 / 1900海上钢琴师 / 传奇1900 / The Legend of 1900 / The Legend Of The Pianist On The Ocean

◎片 名 La leggenda del pianista sull'oceano

◎年 代 1998

◎产 地 意大利

◎类 别 剧情 / 音乐

◎语 言 英语 / 法语 / 意大利语

◎上映日期 2019-11-15(中国大陆) / 1998-10-28(意大利)

◎IMDb链接 https://www.imdb.com/title/tt0120731/

◎豆瓣评分 9.3/10 (1524921人评价)

◎豆瓣链接 https://movie.douban.com/subject/1292001/

◎片 长 165分钟

◎导 演 朱塞佩·托纳多雷 Giuseppe Tornatore (id:1018983)

◎编 剧 亚利桑德罗·巴里克 Alessandro Baricco (id:1005822)

朱塞佩·托纳多雷 Giuseppe Tornatore (id:1018983)

◎演 员 蒂姆·罗斯 Tim Roth (id:1025176)

普路特·泰勒·文斯 Pruitt Taylor Vince (id:1010659)

比尔·努恩 Bill Nunn (id:1027407)

克兰伦斯·威廉姆斯三世 Clarence Williams III (id:1161241)

梅兰尼·蒂埃里 Mélanie Thierry (id:1009391)

皮特·沃恩 Peter Vaughan (id:1156985)

尼尔·奥布赖恩 Niall O'Brien (id:1426475)

阿尔贝托·巴斯克斯 Alberto Vazquez (id:1155601)

加布里埃莱·拉维亚 Gabriele Lavia (id:1028430)

科里·巴克 Cory Buck (id:1075724)

西德尼·科尔 Sidney Cole (id:1073833)

Luigi De Luca Luigi De Luca (id:1426476)

尼古拉·迪·平托 Nicola Di Pinto (id:1088005)

费米·依鲁福祖 Femi Elufowoju Jr. (id:1361676)

伊斯顿·盖奇 Easton Gage (id:1099619)

凯文·麦克纳利 Kevin McNally (id:1123046)

布莱恩·普林格 Bryan Pringle (id:1129403)

沙拉·鲁宾 Shaila Rubin (id:1296266)

希思科特·威廉姆斯 Heathcote Williams (id:1041819)

阿妮妲·扎格利亚 Anita Zagaria (id:1323553)

安吉洛·迪洛雷塔 Angelo Di Loreta (id:1087425)

吉达·布塔 Gilda Buttà (id:1350483)

曲敬国 Jingguo Qu (id:1428004)

劳拉·法托里 Laura Fattori (id:1283484)

马尔科·西蒙兹 Marco Chimenz (id:1280659)

恩尼奥·莫里康内 Ennio Morricone (id:1044688)

马西莫·夸各里安 Massimo Quaglia (id:1295040)

杰里米·齐默尔曼 Jeremy Zimmerman (id:1301745)

弗朗西斯科·弗里格里 Francesco Frigeri (id:1284242)

毛里齐奥·米莱诺蒂 Maurizio Millenotti (id:1021943)

路易吉·洛切蒂 Luigi Rocchetti (id:1295838)

阿尔多·锡格纳蒂 Aldo Signoretti (id:1297590)

雷纳托·弗朗索拉 Renato Francola (id:1284085)

文森佐·马斯特朗托尼奥 Vincenzo Mastrantonio (id:1291245)

菲尔·艾特菲尔德 Phil Attfield (id:1277552)

彼得·比克·奇瓦诺维奇 Peter 'Beak' Cvijanovic (id:1281658)

托马斯·坦嫩伯格 Thomas Tannenberger (id:1298908)

◎简 介

本片讲述了一个钢琴天才传奇的一生。

1900年,Virginian号豪华邮轮上,一个孤儿被遗弃在头等舱,由船上的水手抚养长大,取名1900(蒂姆?罗斯 饰)。1900慢慢长大,显示出了无师自通的非凡钢琴天赋,在船上的乐队表演钢琴,每个听过他演奏的人,都被深深打动。爵士乐鼻祖杰尼听说了1900的高超技艺,专门上船和他比赛,最后自叹弗如,黯然离去。

可惜,这一切的事情都发生在海上,1900从来不愿踏上陆地,直到有一天,他爱上了一个女孩,情愫在琴键上流淌。他会不会为了爱情,踏上陆地开始新的生活,用他的琴声惊艳世界?他将怎样谱写自己非凡的人生。

◎获奖情况 (共1项)

第57届金球奖 (2000)

电影类 最佳原创配乐

└──恩尼奥·莫里康内 (id:1044688)

  1. Video

  2. ID : 1

  3. ID in the original source medium : 4113 (0x1011)

  4. Format : VC-1

  5. Format profile : [email protected]

  6. Codec ID : V_MS/VFW/FOURCC / WVC1

  7. Codec ID/Hint : Microsoft

  8. Duration : 2 h 49 min

  9. Bit rate : 23.6 Mb/s

  10. Width : 1 920 pixels

  11. Height : 1 080 pixels

  12. Display aspect ratio : 16:9

  13. Frame rate mode : Constant

  14. Frame rate : 23.976 (24000/1001/53354) FPS

  15. Color space : YUV

  16. Chroma subsampling : 4:2:0

  17. Bit depth : 8 bits

  18. Scan type : Progressive

  19. Compression mode : Lossy

  20. Bits/(Pixel*Frame) : 0.475

  21. Stream size : 28.0 GiB (84%)

  22. Language : English

  23. Default : No

  24. Forced : No

  25. Original source medium : Blu-ray


  26. Audio #1

  27. ID : 2

  28. ID in the original source medium : 4353 (0x1101)

  29. Format : DTS XLL

  30. Format/Info : Digital Theater Systems

  31. Commercial name : DTS-HD Master Audio

  32. Codec ID : A_DTS

  33. Duration : 2 h 49 min

  34. Bit rate mode : Variable

  35. Bit rate : 1 893 kb/s

  36. Channel(s) : 6 channels

  37. Channel layout : C L R Ls Rs LFE

  38. Sampling rate : 48.0 kHz

  39. Frame rate : 93.750 FPS (512 SPF)

  40. Bit depth : 16 bits

  41. Compression mode : Lossless

  42. Stream size : 2.24 GiB (7%)

  43. Title : DTS-HD MA 5.1

  44. Language : English

  45. Default : Yes

  46. Forced : No

  47. Original source medium : Blu-ray


  48. Audio #2

  49. ID : 3

  50. ID in the original source medium : 4352 (0x1100)

  51. Format : DTS XLL

  52. Format/Info : Digital Theater Systems

  53. Commercial name : DTS-HD Master Audio

  54. Codec ID : A_DTS

  55. Duration : 2 h 49 min

  56. Bit rate mode : Variable

  57. Bit rate : 2 198 kb/s

  58. Channel(s) : 6 channels

  59. Channel layout : C L R Ls Rs LFE

  60. Sampling rate : 48.0 kHz

  61. Frame rate : 93.750 FPS (512 SPF)

  62. Bit depth : 16 bits

  63. Compression mode : Lossless

  64. Stream size : 2.61 GiB (8%)

  65. Title : DTS-HD MA 5.1

  66. Language : Italian

  67. Default : No

  68. Forced : No

  69. Original source medium : Blu-ray


  70. Audio #3

  71. ID : 4

  72. ID in the original source medium : 4354 (0x1102)

  73. Format : AC-3

  74. Format/Info : Audio Coding 3

  75. Commercial name : Dolby Digital

  76. Codec ID : A_AC3

  77. Duration : 2 h 49 min

  78. Bit rate mode : Constant

  79. Bit rate : 448 kb/s

  80. Channel(s) : 2 channels

  81. Channel layout : L R

  82. Sampling rate : 48.0 kHz

  83. Frame rate : 31.250 FPS (1536 SPF)

  84. Compression mode : Lossy

  85. Stream size : 544 MiB (2%)

  86. Title : DD 2.0

  87. Language : Italian

  88. Service kind : Complete Main

  89. Default : No

  90. Forced : No

  91. Original source medium : Blu-ray


  92. Text #1

  93. ID : 5

  94. Format : UTF-8

  95. Codec ID : S_TEXT/UTF8

  96. Codec ID/Info : UTF-8 Plain Text

  97. Duration : 2 h 41 min

  98. Bit rate : 0 b/s

  99. Count of elements : 2

  100. Stream size : 44.0 Bytes (0%)

  101. Title : FORCED

  102. Language : English

  103. Default : No

  104. Forced : Yes


  105. Text #2

  106. ID : 6

  107. Format : UTF-8

  108. Codec ID : S_TEXT/UTF8

  109. Codec ID/Info : UTF-8 Plain Text

  110. Duration : 2 h 44 min

  111. Bit rate : 38 b/s

  112. Count of elements : 1190

  113. Stream size : 46.7 KiB (0%)

  114. Language : English

  115. Default : Yes

  116. Forced : No


  117. Text #3

  118. ID : 7

  119. ID in the original source medium : 4608 (0x1200)

  120. Format : PGS

  121. Muxing mode : zlib

  122. Codec ID : S_HDMV/PGS

  123. Codec ID/Info : Picture based subtitle format used on BDs/HD-DVDs

  124. Duration : 2 h 44 min

  125. Bit rate : 23.2 kb/s

  126. Count of elements : 2384

  127. Stream size : 27.3 MiB (0%)

  128. Language : Italian

  129. Default : No

  130. Forced : No

  131. Original source medium : Blu-ray


  132. Text #4

  133. ID : 8

  134. ID in the original source medium : 4609 (0x1201)

  135. Format : PGS

  136. Muxing mode : zlib

  137. Codec ID : S_HDMV/PGS

  138. Codec ID/Info : Picture based subtitle format used on BDs/HD-DVDs

  139. Duration : 2 h 44 min

  140. Bit rate : 23.2 kb/s

  141. Count of elements : 2380

  142. Stream size : 27.3 MiB (0%)

  143. Language : English

  144. Default : No

  145. Forced : No

  146. Original source medium : Blu-ray


  147. Text #5

  148. ID : 9

  149. ID in the original source medium : 4610 (0x1202)

  150. Format : PGS

  151. Muxing mode : zlib

  152. Codec ID : S_HDMV/PGS

  153. Codec ID/Info : Picture based subtitle format used on BDs/HD-DVDs

  154. Duration : 2 h 44 min

  155. Bit rate : 26.8 kb/s

  156. Count of elements : 2862

  157. Stream size : 31.6 MiB (0%)

  158. Language : Italian

  159. Default : No

  160. Forced : No

  161. Original source medium : Blu-ray


  162. Text #6

  163. ID : 10

  164. ID in the original source medium : 4611 (0x1203)

  165. Format : PGS

  166. Muxing mode : zlib

  167. Codec ID : S_HDMV/PGS

  168. Codec ID/Info : Picture based subtitle format used on BDs/HD-DVDs

  169. Duration : 2 h 45 min

  170. Bit rate : 35.0 kb/s

  171. Count of elements : 3720

  172. Stream size : 41.5 MiB (0%)

  173. Language : Italian

  174. Default : No

  175. Forced : No

  176. Original source medium : Blu-ray


  177. Text #7

  178. ID : 11

  179. ID in the original source medium : 4612 (0x1204)

  180. Format : PGS

  181. Muxing mode : zlib

  182. Codec ID : S_HDMV/PGS

  183. Codec ID/Info : Picture based subtitle format used on BDs/HD-DVDs

  184. Duration : 1 h 33 min

  185. Bit rate : 82 b/s

  186. Count of elements : 6

  187. Stream size : 56.5 KiB (0%)

  188. Title : FORCED

  189. Language : Italian

  190. Default : No

  191. Forced : No

  192. Original source medium : Blu-ray


  193. Text #8

  194. ID : 12

  195. ID in the original source medium : 4613 (0x1205)

  196. Format : PGS

  197. Muxing mode : zlib

  198. Codec ID : S_HDMV/PGS

  199. Codec ID/Info : Picture based subtitle format used on BDs/HD-DVDs

  200. Duration : 2 h 41 min

  201. Bit rate : 23 b/s

  202. Count of elements : 4

  203. Stream size : 28.0 KiB (0%)

  204. Title : FORCED

  205. Language : English

  206. Default : No

  207. Forced : Yes

  208. Original source medium : Blu-ray


  209. Text #9

  210. ID : 13

  211. ID in the original source medium : 4614 (0x1206)

  212. Format : PGS

  213. Muxing mode : zlib

  214. Codec ID : S_HDMV/PGS

  215. Codec ID/Info : Picture based subtitle format used on BDs/HD-DVDs

  216. Duration : 2 h 44 min

  217. Bit rate : 14.3 kb/s

  218. Count of elements : 1995

  219. Stream size : 16.8 MiB (0%)

  220. Language : Chinese

  221. Default : No

  222. Forced : No

  223. Original source medium : Blu-ray


  224. Text #10

  225. ID : 14

  226. ID in the original source medium : 4615 (0x1207)

  227. Format : PGS

  228. Muxing mode : zlib

  229. Codec ID : S_HDMV/PGS

  230. Codec ID/Info : Picture based subtitle format used on BDs/HD-DVDs

  231. Duration : 2 h 44 min

  232. Bit rate : 14.6 kb/s

  233. Count of elements : 1995

  234. Stream size : 17.2 MiB (0%)

  235. Language : Chinese

  236. Default : No

  237. Forced : No

  238. Original source medium : Blu-ray


  239. Menu

  240. 00:00:00.000 : en:Chapter 01

  241. 00:10:47.855 : en:Chapter 02

  242. 00:14:25.698 : en:Chapter 03

  243. 00:16:17.351 : en:Chapter 04

  244. 00:45:45.033 : en:Chapter 05

  245. 01:13:41.792 : en:Chapter 06

  246. 01:24:48.917 : en:Chapter 07

  247. 01:49:14.798 : en:Chapter 08

  248. 01:58:17.757 : en:Chapter 09

  249. 02:14:01.366 : en:Chapter 10

  250. 02:26:44.378 : en:Chapter 11

  251. 02:40:58.649 : en:Chapter 12

复制代码

海上钢琴师[中文字幕].The.Legend.of.1900.1998.1080p.BluRay.REMUX.VC 1.DTS HD.MA.5.1 FGT 33.42GB  欧美电影  第2张 海上钢琴师[中文字幕].The.Legend.of.1900.1998.1080p.BluRay.REMUX.VC 1.DTS HD.MA.5.1 FGT 33.42GB  欧美电影  第3张 海上钢琴师[中文字幕].The.Legend.of.1900.1998.1080p.BluRay.REMUX.VC 1.DTS HD.MA.5.1 FGT 33.42GB  欧美电影  第4张



文件下载


除非特别注明,本文『海上钢琴师[中文字幕].The.Legend.of.1900.1998.1080p.BluRay.REMUX.VC-1.DTS-HD.MA.5.1-FGT 33.42GB』来源于互联网机器人自动抓取,非本站原创。 浮游电影网不对本文拥有版权,如有侵犯,请联系邮箱:fuyouu#yandex.com[#换成@]投诉。我们会在15个工作日内删除。 但烦请转载时请标明出处:“本文转载于『浮游电影网』,原文地址:https://www.fuyouu.com/21618.html

评论吧骚年!

发表你的见解   

昵称*

E-mail*(建议输入,以便收到博主回复的提示邮件)

验证码*

您可以使用eMule或eMule Mod(Windows)、aMule(Win、Linux、Mac)等软件下载eD2k链接。。
eMule收藏集(.emulecollection)文件是您选中的所有链接的列表文件。eMule可以直接下载它们。
按住SHIFT键选择可以选中多个选择框。
可用文件名和大小选择器来选择文件。
文件名选择器帮您根据文件名称或后缀来选择文件。不分大小写。
符号使用:
和:空格( )、+
不包含:-
或:|
转义:一对英文引号("");
匹配开头:^
匹配结尾:$
例如:
选中所有名称中包含有“eMule”或“0.49c”字眼,但不包含有“exe”字眼的:emule|0.49c -exe
选中所有名称的开头是“eMule”,结尾是“0.49c”的:^emule 0.49c$
选中所有名称中带有“eMule 0.49c”的(必须是“eMule 0.49c”,中间没有别的字符,不能是“eMule fake 0.49c”),需要转义:"emule 0.49c"
大小选择器帮您根据文件大小选择文件。