当前位置: 首页 >> 欧美电影 >> 北极熊[中文字幕].Polar.Bear.2022.720p.DSNP.WEBRip.DDP5.1.Atmos.x264-playWEB 2.32GB >> 正文

北极熊[中文字幕].Polar.Bear.2022.720p.DSNP.WEBRip.DDP5.1.Atmos.x264-playWEB 2.32GB

2022年04月23日 00:41:05     电影发布:来源于网络     电影分类:欧美电影     评论(0)    

北极熊[中文字幕].Polar.Bear.2022.720p.DSNP.WEBRip.DDP5.1.Atmos.x264 playWEB 2.32GB  欧美电影  第1张

◎译 名 北极熊

◎片 名 Polar Bear

◎年 代 2022

◎产 地 美国

◎类 别 纪录片

◎语 言 英语

◎上映日期 2022-04-22(美国网络)

◎IMDb链接 https://www.imdb.com/title/tt17048330/

◎豆瓣链接 https://movie.douban.com/subject/35798166/

◎导 演 艾雷斯泰·法瑟吉尔 Alastair Fothergill (id:1001063)

◎演 员 凯瑟琳·基纳 Catherine Keener (id:1002681)

◎简 介

讲述一只初为熊母的北极熊带孩子的故事,在这个挑战日益艰难的世界中,年幼时的记忆帮助如今的它做好当母亲的准备,每一天都是新的冒险

  1. Video

  2. ID : 1

  3. Format : AVC

  4. Format/Info : Advanced Video Codec

  5. Format profile : [email protected]

  6. Format settings : CABAC / 4 Ref Frames

  7. Format settings, CABAC : Yes

  8. Format settings, Reference frames : 4 frames

  9. Codec ID : V_MPEG4/ISO/AVC

  10. Duration : 1 h 23 min

  11. Bit rate mode : Variable

  12. Bit rate : 3 235 kb/s

  13. Maximum bit rate : 6 375 kb/s

  14. Width : 1 280 pixels

  15. Height : 720 pixels

  16. Display aspect ratio : 16:9

  17. Frame rate mode : Constant

  18. Frame rate : 23.976 (24000/1001/53354) FPS

  19. Color space : YUV

  20. Chroma subsampling : 4:2:0

  21. Bit depth : 8 bits

  22. Scan type : Progressive

  23. Bits/(Pixel*Frame) : 0.146

  24. Stream size : 1.88 GiB (81%)

  25. Language : English

  26. Default : Yes

  27. Forced : No

  28. Color range : Limited

  29. Color primaries : BT.709

  30. Transfer characteristics : BT.709

  31. Matrix coefficients : BT.709


  32. Audio

  33. ID : 2

  34. Format : E-AC-3 JOC

  35. Format/Info : Enhanced AC-3 with Joint Object Coding

  36. Commercial name : Dolby Digital Plus with Dolby Atmos

  37. Codec ID : A_EAC3

  38. Duration : 1 h 23 min

  39. Bit rate mode : Constant

  40. Bit rate : 768 kb/s

  41. Channel(s) : 6 channels

  42. Channel layout : L R C LFE Ls Rs

  43. Sampling rate : 48.0 kHz

  44. Frame rate : 31.250 FPS (1536 SPF)

  45. Compression mode : Lossy

  46. Stream size : 456 MiB (19%)

  47. Language : English

  48. Service kind : Complete Main

  49. Default : Yes

  50. Forced : No

  51. Complexity index : 16

  52. Number of dynamic objects : 15

  53. Bed channel count : 1 channel

  54. Bed channel configuration : LFE


  55. Text #1

  56. ID : 3

  57. Format : UTF-8

  58. Codec ID : S_TEXT/UTF8

  59. Codec ID/Info : UTF-8 Plain Text

  60. Duration : 1 h 17 min

  61. Bit rate : 22 b/s

  62. Count of elements : 323

  63. Stream size : 12.9 KiB (0%)

  64. Language : English

  65. Default : No

  66. Forced : No


  67. Text #2

  68. ID : 4

  69. Format : UTF-8

  70. Codec ID : S_TEXT/UTF8

  71. Codec ID/Info : UTF-8 Plain Text

  72. Duration : 1 h 17 min

  73. Bit rate : 23 b/s

  74. Count of elements : 341

  75. Stream size : 13.2 KiB (0%)

  76. Title : SDH

  77. Language : English

  78. Default : No

  79. Forced : No


  80. Text #3

  81. ID : 5

  82. Format : UTF-8

  83. Codec ID : S_TEXT/UTF8

  84. Codec ID/Info : UTF-8 Plain Text

  85. Duration : 1 h 22 min

  86. Bit rate : 23 b/s

  87. Count of elements : 329

  88. Stream size : 14.1 KiB (0%)

  89. Language : Czech

  90. Default : No

  91. Forced : No


  92. Text #4

  93. ID : 6

  94. Format : UTF-8

  95. Codec ID : S_TEXT/UTF8

  96. Codec ID/Info : UTF-8 Plain Text

  97. Duration : 1 h 22 min

  98. Bit rate : 21 b/s

  99. Count of elements : 328

  100. Stream size : 12.9 KiB (0%)

  101. Language : Danish

  102. Default : No

  103. Forced : No


  104. Text #5

  105. ID : 7

  106. Format : UTF-8

  107. Codec ID : S_TEXT/UTF8

  108. Codec ID/Info : UTF-8 Plain Text

  109. Duration : 1 h 22 min

  110. Bit rate : 23 b/s

  111. Count of elements : 407

  112. Stream size : 13.9 KiB (0%)

  113. Language : German

  114. Default : No

  115. Forced : No


  116. Text #6

  117. ID : 8

  118. Format : UTF-8

  119. Codec ID : S_TEXT/UTF8

  120. Codec ID/Info : UTF-8 Plain Text

  121. Duration : 1 h 22 min

  122. Bit rate : 43 b/s

  123. Count of elements : 329

  124. Stream size : 26.2 KiB (0%)

  125. Language : Greek

  126. Default : No

  127. Forced : No


  128. Text #7

  129. ID : 9

  130. Format : UTF-8

  131. Codec ID : S_TEXT/UTF8

  132. Codec ID/Info : UTF-8 Plain Text

  133. Duration : 1 h 22 min

  134. Bit rate : 23 b/s

  135. Count of elements : 329

  136. Stream size : 14.4 KiB (0%)

  137. Title : Latin America

  138. Language : Spanish

  139. Default : No

  140. Forced : No


  141. Text #8

  142. ID : 10

  143. Format : UTF-8

  144. Codec ID : S_TEXT/UTF8

  145. Codec ID/Info : UTF-8 Plain Text

  146. Duration : 1 h 22 min

  147. Bit rate : 23 b/s

  148. Count of elements : 329

  149. Stream size : 14.4 KiB (0%)

  150. Language : Spanish

  151. Default : No

  152. Forced : No


  153. Text #9

  154. ID : 11

  155. Format : UTF-8

  156. Codec ID : S_TEXT/UTF8

  157. Codec ID/Info : UTF-8 Plain Text

  158. Duration : 1 h 22 min

  159. Bit rate : 21 b/s

  160. Count of elements : 328

  161. Stream size : 12.9 KiB (0%)

  162. Language : Finnish

  163. Default : No

  164. Forced : No


  165. Text #10

  166. ID : 12

  167. Format : UTF-8

  168. Codec ID : S_TEXT/UTF8

  169. Codec ID/Info : UTF-8 Plain Text

  170. Duration : 1 h 22 min

  171. Bit rate : 25 b/s

  172. Count of elements : 364

  173. Stream size : 15.4 KiB (0%)

  174. Language : French

  175. Default : No

  176. Forced : No


  177. Text #11

  178. ID : 13

  179. Format : UTF-8

  180. Codec ID : S_TEXT/UTF8

  181. Codec ID/Info : UTF-8 Plain Text

  182. Duration : 1 h 22 min

  183. Bit rate : 23 b/s

  184. Count of elements : 329

  185. Stream size : 14.5 KiB (0%)

  186. Language : Hungarian

  187. Default : No

  188. Forced : No


  189. Text #12

  190. ID : 14

  191. Format : UTF-8

  192. Codec ID : S_TEXT/UTF8

  193. Codec ID/Info : UTF-8 Plain Text

  194. Duration : 1 h 22 min

  195. Bit rate : 23 b/s

  196. Count of elements : 327

  197. Stream size : 14.4 KiB (0%)

  198. Language : Italian

  199. Default : No

  200. Forced : No


  201. Text #13

  202. ID : 15

  203. Format : UTF-8

  204. Codec ID : S_TEXT/UTF8

  205. Codec ID/Info : UTF-8 Plain Text

  206. Duration : 1 h 22 min

  207. Bit rate : 22 b/s

  208. Count of elements : 334

  209. Stream size : 13.6 KiB (0%)

  210. Language : Japanese

  211. Default : No

  212. Forced : No


  213. Text #14

  214. ID : 16

  215. Format : UTF-8

  216. Codec ID : S_TEXT/UTF8

  217. Codec ID/Info : UTF-8 Plain Text

  218. Duration : 1 h 22 min

  219. Bit rate : 26 b/s

  220. Count of elements : 329

  221. Stream size : 16.1 KiB (0%)

  222. Language : Korean

  223. Default : No

  224. Forced : No


  225. Text #15

  226. ID : 17

  227. Format : UTF-8

  228. Codec ID : S_TEXT/UTF8

  229. Codec ID/Info : UTF-8 Plain Text

  230. Duration : 1 h 22 min

  231. Bit rate : 22 b/s

  232. Count of elements : 322

  233. Stream size : 13.8 KiB (0%)

  234. Language : Dutch

  235. Default : No

  236. Forced : No


  237. Text #16

  238. ID : 18

  239. Format : UTF-8

  240. Codec ID : S_TEXT/UTF8

  241. Codec ID/Info : UTF-8 Plain Text

  242. Duration : 1 h 22 min

  243. Bit rate : 22 b/s

  244. Count of elements : 329

  245. Stream size : 13.3 KiB (0%)

  246. Language : Norwegian

  247. Default : No

  248. Forced : No


  249. Text #17

  250. ID : 19

  251. Format : UTF-8

  252. Codec ID : S_TEXT/UTF8

  253. Codec ID/Info : UTF-8 Plain Text

  254. Duration : 1 h 22 min

  255. Bit rate : 22 b/s

  256. Count of elements : 329

  257. Stream size : 13.5 KiB (0%)

  258. Language : Polish

  259. Default : No

  260. Forced : No


  261. Text #18

  262. ID : 20

  263. Format : UTF-8

  264. Codec ID : S_TEXT/UTF8

  265. Codec ID/Info : UTF-8 Plain Text

  266. Duration : 1 h 22 min

  267. Bit rate : 24 b/s

  268. Count of elements : 329

  269. Stream size : 14.6 KiB (0%)

  270. Title : Brazil

  271. Language : Portuguese

  272. Default : No

  273. Forced : No


  274. Text #19

  275. ID : 21

  276. Format : UTF-8

  277. Codec ID : S_TEXT/UTF8

  278. Codec ID/Info : UTF-8 Plain Text

  279. Duration : 1 h 22 min

  280. Bit rate : 23 b/s

  281. Count of elements : 329

  282. Stream size : 14.1 KiB (0%)

  283. Language : Portuguese

  284. Default : No

  285. Forced : No


  286. Text #20

  287. ID : 22

  288. Format : UTF-8

  289. Codec ID : S_TEXT/UTF8

  290. Codec ID/Info : UTF-8 Plain Text

  291. Duration : 1 h 22 min

  292. Bit rate : 24 b/s

  293. Count of elements : 329

  294. Stream size : 14.9 KiB (0%)

  295. Language : Romanian

  296. Default : No

  297. Forced : No


  298. Text #21

  299. ID : 23

  300. Format : UTF-8

  301. Codec ID : S_TEXT/UTF8

  302. Codec ID/Info : UTF-8 Plain Text

  303. Duration : 1 h 22 min

  304. Bit rate : 21 b/s

  305. Count of elements : 329

  306. Stream size : 13.0 KiB (0%)

  307. Language : Slovak

  308. Default : No

  309. Forced : No


  310. Text #22

  311. ID : 24

  312. Format : UTF-8

  313. Codec ID : S_TEXT/UTF8

  314. Codec ID/Info : UTF-8 Plain Text

  315. Duration : 1 h 22 min

  316. Bit rate : 22 b/s

  317. Count of elements : 329

  318. Stream size : 13.9 KiB (0%)

  319. Language : Swedish

  320. Default : No

  321. Forced : No


  322. Text #23

  323. ID : 25

  324. Format : UTF-8

  325. Codec ID : S_TEXT/UTF8

  326. Codec ID/Info : UTF-8 Plain Text

  327. Duration : 1 h 22 min

  328. Bit rate : 23 b/s

  329. Count of elements : 329

  330. Stream size : 14.3 KiB (0%)

  331. Language : Turkish

  332. Default : No

  333. Forced : No


  334. Text #24

  335. ID : 26

  336. Format : UTF-8

  337. Codec ID : S_TEXT/UTF8

  338. Codec ID/Info : UTF-8 Plain Text

  339. Duration : 1 h 22 min

  340. Bit rate : 18 b/s

  341. Count of elements : 328

  342. Stream size : 11.0 KiB (0%)

  343. Title : Hong Kong

  344. Language : Chinese

  345. Default : No

  346. Forced : No


  347. Text #25

  348. ID : 27

  349. Format : UTF-8

  350. Codec ID : S_TEXT/UTF8

  351. Codec ID/Info : UTF-8 Plain Text

  352. Duration : 1 h 22 min

  353. Bit rate : 18 b/s

  354. Count of elements : 329

  355. Stream size : 11.2 KiB (0%)

  356. Title : Simplified

  357. Language : Chinese

  358. Default : No

  359. Forced : No


  360. Text #26

  361. ID : 28

  362. Format : UTF-8

  363. Codec ID : S_TEXT/UTF8

  364. Codec ID/Info : UTF-8 Plain Text

  365. Duration : 1 h 22 min

  366. Bit rate : 19 b/s

  367. Count of elements : 329

  368. Stream size : 11.6 KiB (0%)

  369. Title : Traditional

  370. Language : Chinese

  371. Default : No

  372. Forced : No


  373. Menu

  374. 01:19:25.724 : en:Credits

复制代码

北极熊[中文字幕].Polar.Bear.2022.720p.DSNP.WEBRip.DDP5.1.Atmos.x264 playWEB 2.32GB  欧美电影  第2张 北极熊[中文字幕].Polar.Bear.2022.720p.DSNP.WEBRip.DDP5.1.Atmos.x264 playWEB 2.32GB  欧美电影  第3张 北极熊[中文字幕].Polar.Bear.2022.720p.DSNP.WEBRip.DDP5.1.Atmos.x264 playWEB 2.32GB  欧美电影  第4张




文件下载


除非特别注明,本文『北极熊[中文字幕].Polar.Bear.2022.720p.DSNP.WEBRip.DDP5.1.Atmos.x264-playWEB 2.32GB』来源于互联网机器人自动抓取,非本站原创。 浮游电影网不对本文拥有版权,如有侵犯,请联系邮箱:fuyouu#yandex.com[#换成@]投诉。我们会在15个工作日内删除。 但烦请转载时请标明出处:“本文转载于『浮游电影网』,原文地址:https://www.fuyouu.com/21617.html

评论吧骚年!

发表你的见解   

昵称*

E-mail*(建议输入,以便收到博主回复的提示邮件)

验证码*

您可以使用eMule或eMule Mod(Windows)、aMule(Win、Linux、Mac)等软件下载eD2k链接。。
eMule收藏集(.emulecollection)文件是您选中的所有链接的列表文件。eMule可以直接下载它们。
按住SHIFT键选择可以选中多个选择框。
可用文件名和大小选择器来选择文件。
文件名选择器帮您根据文件名称或后缀来选择文件。不分大小写。
符号使用:
和:空格( )、+
不包含:-
或:|
转义:一对英文引号("");
匹配开头:^
匹配结尾:$
例如:
选中所有名称中包含有“eMule”或“0.49c”字眼,但不包含有“exe”字眼的:emule|0.49c -exe
选中所有名称的开头是“eMule”,结尾是“0.49c”的:^emule 0.49c$
选中所有名称中带有“eMule 0.49c”的(必须是“eMule 0.49c”,中间没有别的字符,不能是“eMule fake 0.49c”),需要转义:"emule 0.49c"
大小选择器帮您根据文件大小选择文件。