当前位置: 首页 >> 综艺娱乐 >> 奥普拉 + 维奥拉:Netflix特别节目[中文字幕].Oprah.Viola.A.Netflix.Special.Event.2022.720p.NF.WEBRip.DDP5.1.x264-BR3A >> 正文

奥普拉 + 维奥拉:Netflix特别节目[中文字幕].Oprah.Viola.A.Netflix.Special.Event.2022.720p.NF.WEBRip.DDP5.1.x264-BR3A

2022年04月23日 00:39:46     电影发布:来源于网络     电影分类:综艺娱乐     评论(0)    

奥普拉 + 维奥拉:Netflix特别节目[中文字幕].Oprah.Viola.A.Netflix.Special.Event.2022.720p.NF.WEBRip.DDP5.1.x264 BR3A  综艺娱乐  第1张

◎译 名 奥普拉 + 维奥拉:Netflix特别节目

◎片 名 Oprah + Viola: A Netflix Special Event

◎年 代 2022

◎产 地 美国

◎类 别 脱口秀

◎语 言 英语

◎上映日期 2022-04-22(美国)

◎IMDb链接 https://www.imdb.com/title/tt19404044/

◎豆瓣链接 https://movie.douban.com/subject/35876708/

◎片 长 48分钟

◎演 员 维奥拉·戴维斯 Viola Davis (id:1022676)

奥普拉·温弗瑞 Oprah Winfrey (id:1004653)

  1. Video

  2. ID : 1

  3. Format : AVC

  4. Format/Info : Advanced Video Codec

  5. Format profile : [email protected]

  6. Format settings : CABAC / 3 Ref Frames

  7. Format settings, CABAC : Yes

  8. Format settings, Reference frames : 3 frames

  9. Codec ID : V_MPEG4/ISO/AVC

  10. Duration : 48 min 0 s

  11. Bit rate mode : Variable

  12. Bit rate : 3 010 kb/s

  13. Maximum bit rate : 4 515 kb/s

  14. Width : 1 280 pixels

  15. Height : 720 pixels

  16. Display aspect ratio : 16:9

  17. Frame rate mode : Constant

  18. Frame rate : 23.976 (24000/1001/53354) FPS

  19. Color space : YUV

  20. Chroma subsampling : 4:2:0

  21. Bit depth : 8 bits

  22. Scan type : Progressive

  23. Bits/(Pixel*Frame) : 0.136

  24. Stream size : 1.00 GiB (87%)

  25. Writing library : x264 core 148 r2727 7d026e8

  26. Encoding settings : cabac=1 / ref=3 / deblock=1:0:0 / analyse=0x1:0x111 / me=umh / subme=10 / psy=1 / psy_rd=1.00:0.00 / mixed_ref=1 / me_range=24 / chroma_me=1 / trellis=2 / 8x8dct=0 / cqm=0 / deadzone=21,11 / fast_pskip=1 / chroma_qp_offset=-2 / threads=8 / lookahead_threads=1 / sliced_threads=0 / nr=0 / decimate=1 / interlaced=0 / NTMzNTQ= / bluray_compat=0 / stitchable=1 / constrained_intra=0 / bframes=2 / b_pyramid=0 / b_adapt=2 / b_bias=0 / direct=3 / weightb=1 / open_gop=0 / weightp=2 / keyint=250 / keyint_min=23 / scenecut=0 / intra_refresh=0 / rc_lookahead=48 / rc=2pass / mbtree=1 / bitrate=3010 / ratetol=1.0 / qcomp=0.50 / qpmin=6 / qpmax=51 / qpstep=4 / cplxblur=20.0 / qblur=0.5 / vbv_maxrate=4515 / vbv_bufsize=6020 / nal_hrd=vbr / filler=0 / NTMzNTQ=LmsMAP37EqsCpk / ip_ratio=1.40 / aq=1:1.00

  27. Default : Yes

  28. Forced : No


  29. Audio

  30. ID : 2

  31. Format : E-AC-3

  32. Format/Info : Enhanced AC-3

  33. Commercial name : Dolby Digital Plus

  34. Codec ID : A_EAC3

  35. Duration : 48 min 1 s

  36. Bit rate mode : Constant

  37. Bit rate : 448 kb/s

  38. Channel(s) : 6 channels

  39. Channel layout : L R C LFE Ls Rs

  40. Sampling rate : 48.0 kHz

  41. Frame rate : 31.250 FPS (1536 SPF)

  42. Compression mode : Lossy

  43. Stream size : 154 MiB (13%)

  44. Language : English

  45. Service kind : Complete Main

  46. Default : Yes

  47. Forced : No


  48. Text #1

  49. ID : 3

  50. Format : UTF-8

  51. Codec ID : S_TEXT/UTF8

  52. Codec ID/Info : UTF-8 Plain Text

  53. Duration : 47 min 17 s

  54. Bit rate : 111 b/s

  55. Count of elements : 964

  56. Stream size : 38.6 KiB (0%)

  57. Language : English

  58. Default : No

  59. Forced : No


  60. Text #2

  61. ID : 4

  62. Format : UTF-8

  63. Codec ID : S_TEXT/UTF8

  64. Codec ID/Info : UTF-8 Plain Text

  65. Duration : 47 min 42 s

  66. Bit rate : 115 b/s

  67. Count of elements : 988

  68. Stream size : 40.4 KiB (0%)

  69. Title : SDH

  70. Language : English

  71. Default : No

  72. Forced : No


  73. Text #3

  74. ID : 5

  75. Format : UTF-8

  76. Codec ID : S_TEXT/UTF8

  77. Codec ID/Info : UTF-8 Plain Text

  78. Duration : 47 min 44 s

  79. Bit rate : 99 b/s

  80. Count of elements : 905

  81. Stream size : 34.9 KiB (0%)

  82. Language : German

  83. Default : No

  84. Forced : No


  85. Text #4

  86. ID : 6

  87. Format : UTF-8

  88. Codec ID : S_TEXT/UTF8

  89. Codec ID/Info : UTF-8 Plain Text

  90. Duration : 47 min 41 s

  91. Bit rate : 96 b/s

  92. Count of elements : 891

  93. Stream size : 33.5 KiB (0%)

  94. Title : Latin American

  95. Language : Spanish

  96. Default : No

  97. Forced : No


  98. Text #5

  99. ID : 7

  100. Format : UTF-8

  101. Codec ID : S_TEXT/UTF8

  102. Codec ID/Info : UTF-8 Plain Text

  103. Duration : 47 min 43 s

  104. Bit rate : 85 b/s

  105. Count of elements : 912

  106. Stream size : 29.9 KiB (0%)

  107. Language : Spanish

  108. Default : No

  109. Forced : No


  110. Text #6

  111. ID : 8

  112. Format : UTF-8

  113. Codec ID : S_TEXT/UTF8

  114. Codec ID/Info : UTF-8 Plain Text

  115. Duration : 47 min 43 s

  116. Bit rate : 97 b/s

  117. Count of elements : 856

  118. Stream size : 34.1 KiB (0%)

  119. Language : French

  120. Default : No

  121. Forced : No


  122. Text #7

  123. ID : 9

  124. Format : UTF-8

  125. Codec ID : S_TEXT/UTF8

  126. Codec ID/Info : UTF-8 Plain Text

  127. Duration : 47 min 42 s

  128. Bit rate : 98 b/s

  129. Count of elements : 895

  130. Stream size : 34.4 KiB (0%)

  131. Language : Italian

  132. Default : No

  133. Forced : No


  134. Text #8

  135. ID : 10

  136. Format : UTF-8

  137. Codec ID : S_TEXT/UTF8

  138. Codec ID/Info : UTF-8 Plain Text

  139. Duration : 47 min 40 s

  140. Bit rate : 130 b/s

  141. Count of elements : 918

  142. Stream size : 45.5 KiB (0%)

  143. Language : Korean

  144. Default : No

  145. Forced : No


  146. Text #9

  147. ID : 11

  148. Format : UTF-8

  149. Codec ID : S_TEXT/UTF8

  150. Codec ID/Info : UTF-8 Plain Text

  151. Duration : 47 min 44 s

  152. Bit rate : 98 b/s

  153. Count of elements : 900

  154. Stream size : 34.3 KiB (0%)

  155. Title : Brazilian

  156. Language : Portuguese

  157. Default : No

  158. Forced : No


  159. Text #10

  160. ID : 12

  161. Format : UTF-8

  162. Codec ID : S_TEXT/UTF8

  163. Codec ID/Info : UTF-8 Plain Text

  164. Duration : 47 min 42 s

  165. Bit rate : 97 b/s

  166. Count of elements : 918

  167. Stream size : 33.9 KiB (0%)

  168. Title : Simplified

  169. Language : Chinese

  170. Default : No

  171. Forced : No


  172. Menu

  173. 00:47:30.000 : en:Credits

复制代码

奥普拉 + 维奥拉:Netflix特别节目[中文字幕].Oprah.Viola.A.Netflix.Special.Event.2022.720p.NF.WEBRip.DDP5.1.x264 BR3A  综艺娱乐  第2张 奥普拉 + 维奥拉:Netflix特别节目[中文字幕].Oprah.Viola.A.Netflix.Special.Event.2022.720p.NF.WEBRip.DDP5.1.x264 BR3A  综艺娱乐  第3张 奥普拉 + 维奥拉:Netflix特别节目[中文字幕].Oprah.Viola.A.Netflix.Special.Event.2022.720p.NF.WEBRip.DDP5.1.x264 BR3A  综艺娱乐  第4张



文件下载


除非特别注明,本文『奥普拉 + 维奥拉:Netflix特别节目[中文字幕].Oprah.Viola.A.Netflix.Special.Event.2022.720p.NF.WEBRip.DDP5.1.x264-BR3A』来源于互联网机器人自动抓取,非本站原创。 浮游电影网不对本文拥有版权,如有侵犯,请联系邮箱:fuyouu#yandex.com[#换成@]投诉。我们会在15个工作日内删除。 但烦请转载时请标明出处:“本文转载于『浮游电影网』,原文地址:https://www.fuyouu.com/21616.html

评论吧骚年!

发表你的见解   

昵称*

E-mail*(建议输入,以便收到博主回复的提示邮件)

验证码*

您可以使用eMule或eMule Mod(Windows)、aMule(Win、Linux、Mac)等软件下载eD2k链接。。
eMule收藏集(.emulecollection)文件是您选中的所有链接的列表文件。eMule可以直接下载它们。
按住SHIFT键选择可以选中多个选择框。
可用文件名和大小选择器来选择文件。
文件名选择器帮您根据文件名称或后缀来选择文件。不分大小写。
符号使用:
和:空格( )、+
不包含:-
或:|
转义:一对英文引号("");
匹配开头:^
匹配结尾:$
例如:
选中所有名称中包含有“eMule”或“0.49c”字眼,但不包含有“exe”字眼的:emule|0.49c -exe
选中所有名称的开头是“eMule”,结尾是“0.49c”的:^emule 0.49c$
选中所有名称中带有“eMule 0.49c”的(必须是“eMule 0.49c”,中间没有别的字符,不能是“eMule fake 0.49c”),需要转义:"emule 0.49c"
大小选择器帮您根据文件大小选择文件。