当前位置: 首页 >> 欧美电影 >> 雨中曲[中文字幕].Singin.in.the.Rain.1952.2160p.BluRay.REMUX.HEVC.DTS-HD.MA.5.1-FGT 55.36GB >> 正文

雨中曲[中文字幕].Singin.in.the.Rain.1952.2160p.BluRay.REMUX.HEVC.DTS-HD.MA.5.1-FGT 55.36GB

2022年04月23日 00:38:49     电影发布:来源于网络     电影分类:欧美电影     评论(0)    

雨中曲[中文字幕].Singin.in.the.Rain.1952.2160p.BluRay.REMUX.HEVC.DTS HD.MA.5.1 FGT 55.36GB  欧美电影  第1张

◎译 名 雨中曲 / 万花嬉春(港 / 台) / 雨中情 / 百花嬉春

◎片 名 Singin' in the Rain

◎年 代 1952

◎产 地 美国

◎类 别 喜剧 / 爱情 / 歌舞

◎语 言 英语

◎上映日期 1952-04-11(美国)

◎IMDb链接 https://www.imdb.com/title/tt0045152/

◎豆瓣评分 9.1/10 (193057人评价)

◎豆瓣链接 https://movie.douban.com/subject/1293460/

◎片 长 103分钟

◎导 演 斯坦利·多南 Stanley Donen (id:1002835)

吉恩·凯利 Gene Kelly (id:1049621)

◎编 剧 贝蒂·康登 Betty Comden (id:1045606)

阿多夫·格林 Adolph Green (id:1037250)

◎演 员 吉恩·凯利 Gene Kelly (id:1049621)

唐纳德·奥康纳 Donald O'Connor (id:1049821)

黛比·雷诺斯 Debbie Reynolds (id:1000160)

简·哈根 Jean Hagen (id:1022873)

米勒德·米切尔 Millard Mitchell (id:1118885)

赛德·查里斯 Cyd Charisse (id:1032107)

达格拉斯·福雷 Douglas Fowley (id:1054260)

丽塔·莫雷诺 Rita Moreno (id:1036541)

道恩·艾达丝 Dawn Addams (id:1050314)

John Albright John Albright (id:1059360)

Betty Allen Betty Allen (id:1060088)

Bette Arlen Bette Arlen (id:1057975)

David Bair David Bair (id:1060811)

玛格丽特·伯特 Margaret Bert (id:1066208)

Madge Blake Madge Blake (id:1065774)

Gail Bonney Gail Bonney (id:1062802)

Chet Brandenburg Chet Brandenburg (id:1074404)

梅·克拉克 Mae Clarke (id:1025414)

Harry Cody Harry Cody (id:1067966)

Chick Collins Chick Collins (id:1067401)

Pat Conway Pat Conway (id:1068131)

Jeanne Coyne Jeanne Coyne (id:1069358)

Fred Datig Jr. Fred Datig Jr. (id:1089721)

凯·德利斯 Kay Deslys (id:1084544)

John Dodsworth John Dodsworth (id:1081070)

金·多诺万 King Donovan (id:1007204)

Phil Dunham Phil Dunham (id:1054492)

海伦·艾比罗克 Helen Eby-Rock (id:1086306)

Richard Emory Richard Emory (id:1085424)

Tommy Farrell Tommy Farrell (id:1080113)

Ernie Flatt Ernie Flatt (id:1088172)

贝丝·弗劳尔斯 Bess Flowers (id:1084601)

罗伯特·福捷 Robert Fortier (id:1042166)

Dan Foster Dan Foster (id:1088292)

Robert Foulk Robert Foulk (id:1089116)

Eric Freeman Eric Freeman (id:1079580)

凯瑟琳·弗里曼 Kathleen Freeman (id:1083132)

兰斯·富勒 Lance Fuller (id:1037369)

杰克·乔治 Jack George (id:1096987)

John George John George (id:1096107)

Inez Gorman Inez Gorman (id:1095720)

A. Cameron Grant A. Cameron Grant (id:1097917)

Beatrice Gray Beatrice Gray (id:1099270)

William Hamel William Hamel (id:1097446)

山姆·哈里斯 Sam Harris (id:1100419)

Timmy Hawkins Timmy Hawkins (id:1099682)

Jean Heremans Jean Heremans (id:1095030)

斯图尔特·霍姆斯 Stuart Holmes (id:1091930)

肯纳G.肯普 Kenner G. Kemp (id:1104065)

迈克·拉里 Mike Lally (id:1107012)

乔伊·兰辛 Joi Lansing (id:1000629)

William F. Leicester William F. Leicester (id:1120086)

Sylvia Lewis Sylvia Lewis (id:1118241)

伦尼·海顿 Lennie Hayton (id:1005283)

沃尔特·普朗凯特 Walter Plunkett (id:1019459)

道格拉斯·希勒 Douglas Shearer (id:1140891)

◎简 介

1927年,由唐·洛克伍德(吉恩·凯利 饰)和丽娜·雷蒙德(简·哈根 饰)主演的《皇家流氓》在好莱坞首映。由于丽娜刺耳的嗓音无法匹配其夺目的外貌,为了维护明星形象,宣传部只得安排唐一人讲话。首映后,由于钢琴师科斯莫·布朗(唐纳德·奥康纳 饰)的汽车爆胎,为了躲避疯狂的影迷,唐意外结识了能歌善舞的凯西·塞尔登(黛比·雷诺斯 饰),并被其深深吸引。数周后,首部有声电影《爵士歌手》爆红,唐与丽娜的新片《决斗骑士》不得不临时改变拍摄方式,而凯西也成为歌舞片演员。因预映口碑极差,科斯莫提议将《决斗骑士》改为歌舞片,由凯西为丽娜配音,凯西积极附议。与凯西吻别后,唐心花怒放,在雨中载歌载舞。科斯莫的计划能否奏效?幕后的凯西能否走到台前接受观众的掌声?

◎获奖情况 (共4项)

第25届奥斯卡金像奖 (1953)

最佳女配角(提名)

└──简·哈根 (id:1022873)

歌舞片最佳配乐(提名)

└──伦尼·海顿 (id:1005283)

第10届金球奖 (1953)

电影类 最佳音乐/喜剧片(提名)

电影类 音乐/喜剧片最佳男主角

└──唐纳德·奥康纳 (id:1049821)

  1. Video

  2. ID : 1

  3. ID in the original source medium : 4113 (0x1011)

  4. Format : HEVC

  5. Format/Info : High Efficiency Video Coding

  6. Format profile : Main [email protected]@High

  7. HDR format : SMPTE ST 2086, HDR10 compatible

  8. Codec ID : V_MPEGH/ISO/HEVC

  9. Duration : 1 h 42 min

  10. Bit rate : 69.8 Mb/s

  11. Width : 3 840 pixels

  12. Height : 2 160 pixels

  13. Display aspect ratio : 16:9

  14. Frame rate mode : Constant

  15. Frame rate : 23.976 (24000/1001/53354) FPS

  16. Color space : YUV

  17. Chroma subsampling : 4:2:0 (Type 2)

  18. Bit depth : 10 bits

  19. Bits/(Pixel*Frame) : 0.351

  20. Stream size : 50.1 GiB (91%)

  21. Language : English

  22. Default : No

  23. Forced : No

  24. Color range : Limited

  25. Color primaries : BT.2020

  26. Transfer characteristics : PQ

  27. Matrix coefficients : BT.2020 non-constant

  28. Mastering display color primaries : Display P3

  29. Mastering display luminance : min: 0.0001 cd/m2, max: 1000 cd/m2

  30. Maximum Content Light Level : 992 cd/m2

  31. Maximum Frame-Average Light Level : 103 cd/m2

  32. Original source medium : Blu-ray


  33. Audio #1

  34. ID : 2

  35. ID in the original source medium : 4352 (0x1100)

  36. Format : DTS XLL

  37. Format/Info : Digital Theater Systems

  38. Commercial name : DTS-HD Master Audio

  39. Codec ID : A_DTS

  40. Duration : 1 h 42 min

  41. Bit rate mode : Variable

  42. Bit rate : 3 310 kb/s

  43. Channel(s) : 6 channels

  44. Channel layout : C L R Ls Rs LFE

  45. Sampling rate : 48.0 kHz

  46. Frame rate : 93.750 FPS (512 SPF)

  47. Bit depth : 24 bits

  48. Compression mode : Lossless

  49. Stream size : 2.38 GiB (4%)

  50. Title : DTS-HD MA 5.1

  51. Language : English

  52. Default : Yes

  53. Forced : No

  54. Original source medium : Blu-ray


  55. Audio #2

  56. ID : 3

  57. Format : AC-3

  58. Format/Info : Audio Coding 3

  59. Commercial name : Dolby Digital

  60. Codec ID : A_AC3

  61. Duration : 1 h 42 min

  62. Bit rate mode : Constant

  63. Bit rate : 640 kb/s

  64. Channel(s) : 6 channels

  65. Channel layout : L R C LFE Ls Rs

  66. Sampling rate : 48.0 kHz

  67. Frame rate : 31.250 FPS (1536 SPF)

  68. Compression mode : Lossy

  69. Stream size : 470 MiB (1%)

  70. Title : DD 5.1

  71. Language : English

  72. Service kind : Complete Main

  73. Default : No

  74. Forced : No


  75. Audio #3

  76. ID : 4

  77. ID in the original source medium : 4353 (0x1101)

  78. Format : DTS XLL

  79. Format/Info : Digital Theater Systems

  80. Commercial name : DTS-HD Master Audio

  81. Codec ID : A_DTS

  82. Duration : 1 h 42 min

  83. Bit rate mode : Variable

  84. Bit rate : 1 800 kb/s

  85. Channel(s) : 2 channels

  86. Channel layout : L R

  87. Sampling rate : 48.0 kHz

  88. Frame rate : 93.750 FPS (512 SPF)

  89. Bit depth : 24 bits

  90. Compression mode : Lossless

  91. Stream size : 1.29 GiB (2%)

  92. Title : DTS-HD MA 2.0

  93. Language : English

  94. Default : No

  95. Forced : No

  96. Original source medium : Blu-ray


  97. Audio #4

  98. ID : 5

  99. ID in the original source medium : 4354 (0x1102)

  100. Format : AC-3

  101. Format/Info : Audio Coding 3

  102. Commercial name : Dolby Digital

  103. Codec ID : A_AC3

  104. Duration : 1 h 42 min

  105. Bit rate mode : Constant

  106. Bit rate : 192 kb/s

  107. Channel(s) : 1 channel

  108. Channel layout : C

  109. Sampling rate : 48.0 kHz

  110. Frame rate : 31.250 FPS (1536 SPF)

  111. Compression mode : Lossy

  112. Stream size : 141 MiB (0%)

  113. Title : DD 1.0

  114. Language : French

  115. Service kind : Complete Main

  116. Default : No

  117. Forced : No

  118. Original source medium : Blu-ray


  119. Audio #5

  120. ID : 6

  121. ID in the original source medium : 4355 (0x1103)

  122. Format : AC-3

  123. Format/Info : Audio Coding 3

  124. Commercial name : Dolby Digital

  125. Codec ID : A_AC3

  126. Duration : 1 h 42 min

  127. Bit rate mode : Constant

  128. Bit rate : 192 kb/s

  129. Channel(s) : 1 channel

  130. Channel layout : C

  131. Sampling rate : 48.0 kHz

  132. Frame rate : 31.250 FPS (1536 SPF)

  133. Compression mode : Lossy

  134. Stream size : 141 MiB (0%)

  135. Title : DD 1.0

  136. Language : German

  137. Service kind : Complete Main

  138. Default : No

  139. Forced : No

  140. Original source medium : Blu-ray


  141. Audio #6

  142. ID : 7

  143. ID in the original source medium : 4356 (0x1104)

  144. Format : AC-3

  145. Format/Info : Audio Coding 3

  146. Commercial name : Dolby Digital

  147. Codec ID : A_AC3

  148. Duration : 1 h 42 min

  149. Bit rate mode : Constant

  150. Bit rate : 192 kb/s

  151. Channel(s) : 1 channel

  152. Channel layout : C

  153. Sampling rate : 48.0 kHz

  154. Frame rate : 31.250 FPS (1536 SPF)

  155. Compression mode : Lossy

  156. Stream size : 141 MiB (0%)

  157. Title : DD 1.0

  158. Language : Italian

  159. Service kind : Complete Main

  160. Default : No

  161. Forced : No

  162. Original source medium : Blu-ray


  163. Audio #7

  164. ID : 8

  165. ID in the original source medium : 4357 (0x1105)

  166. Format : AC-3

  167. Format/Info : Audio Coding 3

  168. Commercial name : Dolby Digital

  169. Codec ID : A_AC3

  170. Duration : 1 h 42 min

  171. Bit rate mode : Constant

  172. Bit rate : 192 kb/s

  173. Channel(s) : 1 channel

  174. Channel layout : C

  175. Sampling rate : 48.0 kHz

  176. Frame rate : 31.250 FPS (1536 SPF)

  177. Compression mode : Lossy

  178. Stream size : 141 MiB (0%)

  179. Title : DD 1.0

  180. Language : Spanish

  181. Service kind : Complete Main

  182. Default : No

  183. Forced : No

  184. Original source medium : Blu-ray


  185. Audio #8

  186. ID : 9

  187. ID in the original source medium : 4358 (0x1106)

  188. Format : AC-3

  189. Format/Info : Audio Coding 3

  190. Commercial name : Dolby Digital

  191. Codec ID : A_AC3

  192. Duration : 1 h 42 min

  193. Bit rate mode : Constant

  194. Bit rate : 192 kb/s

  195. Channel(s) : 1 channel

  196. Channel layout : C

  197. Sampling rate : 48.0 kHz

  198. Frame rate : 31.250 FPS (1536 SPF)

  199. Compression mode : Lossy

  200. Stream size : 141 MiB (0%)

  201. Title : DD 1.0

  202. Language : Spanish

  203. Service kind : Complete Main

  204. Default : No

  205. Forced : No

  206. Original source medium : Blu-ray


  207. Audio #9

  208. ID : 10

  209. ID in the original source medium : 4359 (0x1107)

  210. Format : AC-3

  211. Format/Info : Audio Coding 3

  212. Commercial name : Dolby Digital

  213. Codec ID : A_AC3

  214. Duration : 1 h 42 min

  215. Bit rate mode : Constant

  216. Bit rate : 192 kb/s

  217. Channel(s) : 2 channels

  218. Channel layout : L R

  219. Sampling rate : 48.0 kHz

  220. Frame rate : 31.250 FPS (1536 SPF)

  221. Compression mode : Lossy

  222. Stream size : 141 MiB (0%)

  223. Title : DD 2.0

  224. Language : Japanese

  225. Service kind : Complete Main

  226. Default : No

  227. Forced : No

  228. Original source medium : Blu-ray


  229. Audio #10

  230. ID : 11

  231. ID in the original source medium : 4360 (0x1108)

  232. Format : AC-3

  233. Format/Info : Audio Coding 3

  234. Commercial name : Dolby Digital

  235. Codec ID : A_AC3

  236. Duration : 1 h 42 min

  237. Bit rate mode : Constant

  238. Bit rate : 192 kb/s

  239. Channel(s) : 1 channel

  240. Channel layout : C

  241. Sampling rate : 48.0 kHz

  242. Frame rate : 31.250 FPS (1536 SPF)

  243. Compression mode : Lossy

  244. Stream size : 141 MiB (0%)

  245. Title : DD 1.0

  246. Language : English

  247. Service kind : Complete Main

  248. Default : No

  249. Forced : No

  250. Original source medium : Blu-ray


  251. Text #1

  252. ID : 12

  253. Format : UTF-8

  254. Codec ID : S_TEXT/UTF8

  255. Codec ID/Info : UTF-8 Plain Text

  256. Duration : 1 h 42 min

  257. Bit rate : 61 b/s

  258. Count of elements : 1375

  259. Stream size : 46.1 KiB (0%)

  260. Language : English

  261. Default : Yes

  262. Forced : No


  263. Text #2

  264. ID : 13

  265. Format : UTF-8

  266. Codec ID : S_TEXT/UTF8

  267. Codec ID/Info : UTF-8 Plain Text

  268. Duration : 1 h 42 min

  269. Bit rate : 63 b/s

  270. Count of elements : 1450

  271. Stream size : 47.7 KiB (0%)

  272. Title : SDH

  273. Language : English

  274. Default : No

  275. Forced : No


  276. Text #3

  277. ID : 14

  278. ID in the original source medium : 4768 (0x12A0)

  279. Format : PGS

  280. Muxing mode : zlib

  281. Codec ID : S_HDMV/PGS

  282. Codec ID/Info : Picture based subtitle format used on BDs/HD-DVDs

  283. Duration : 1 h 42 min

  284. Bit rate : 38.2 kb/s

  285. Count of elements : 2945

  286. Stream size : 27.9 MiB (0%)

  287. Language : English

  288. Default : No

  289. Forced : No

  290. Original source medium : Blu-ray


  291. Text #4

  292. ID : 15

  293. ID in the original source medium : 4769 (0x12A1)

  294. Format : PGS

  295. Muxing mode : zlib

  296. Codec ID : S_HDMV/PGS

  297. Codec ID/Info : Picture based subtitle format used on BDs/HD-DVDs

  298. Duration : 1 h 39 min

  299. Bit rate : 23.3 kb/s

  300. Count of elements : 1872

  301. Stream size : 16.5 MiB (0%)

  302. Language : French

  303. Default : No

  304. Forced : No

  305. Original source medium : Blu-ray


  306. Text #5

  307. ID : 16

  308. ID in the original source medium : 4770 (0x12A2)

  309. Format : PGS

  310. Muxing mode : zlib

  311. Codec ID : S_HDMV/PGS

  312. Codec ID/Info : Picture based subtitle format used on BDs/HD-DVDs

  313. Duration : 1 h 42 min

  314. Bit rate : 42.4 kb/s

  315. Count of elements : 2937

  316. Stream size : 31.0 MiB (0%)

  317. Language : German

  318. Default : No

  319. Forced : No

  320. Original source medium : Blu-ray


  321. Text #6

  322. ID : 17

  323. ID in the original source medium : 4771 (0x12A3)

  324. Format : PGS

  325. Muxing mode : zlib

  326. Codec ID : S_HDMV/PGS

  327. Codec ID/Info : Picture based subtitle format used on BDs/HD-DVDs

  328. Duration : 1 h 42 min

  329. Bit rate : 34.8 kb/s

  330. Count of elements : 2873

  331. Stream size : 25.5 MiB (0%)

  332. Language : Italian

  333. Default : No

  334. Forced : No

  335. Original source medium : Blu-ray


  336. Text #7

  337. ID : 18

  338. ID in the original source medium : 4772 (0x12A4)

  339. Format : PGS

  340. Muxing mode : zlib

  341. Codec ID : S_HDMV/PGS

  342. Codec ID/Info : Picture based subtitle format used on BDs/HD-DVDs

  343. Duration : 1 h 42 min

  344. Bit rate : 31.5 kb/s

  345. Count of elements : 2779

  346. Stream size : 23.0 MiB (0%)

  347. Language : Spanish

  348. Default : No

  349. Forced : No

  350. Original source medium : Blu-ray


  351. Text #8

  352. ID : 19

  353. ID in the original source medium : 4773 (0x12A5)

  354. Format : PGS

  355. Muxing mode : zlib

  356. Codec ID : S_HDMV/PGS

  357. Codec ID/Info : Picture based subtitle format used on BDs/HD-DVDs

  358. Duration : 1 h 42 min

  359. Bit rate : 31.4 kb/s

  360. Count of elements : 2571

  361. Stream size : 23.0 MiB (0%)

  362. Language : Chinese

  363. Default : No

  364. Forced : No

  365. Original source medium : Blu-ray


  366. Text #9

  367. ID : 20

  368. ID in the original source medium : 4774 (0x12A6)

  369. Format : PGS

  370. Muxing mode : zlib

  371. Codec ID : S_HDMV/PGS

  372. Codec ID/Info : Picture based subtitle format used on BDs/HD-DVDs

  373. Duration : 1 h 42 min

  374. Bit rate : 29.5 kb/s

  375. Count of elements : 2765

  376. Stream size : 21.6 MiB (0%)

  377. Language : Korean

  378. Default : No

  379. Forced : No

  380. Original source medium : Blu-ray


  381. Text #10

  382. ID : 21

  383. ID in the original source medium : 4775 (0x12A7)

  384. Format : PGS

  385. Muxing mode : zlib

  386. Codec ID : S_HDMV/PGS

  387. Codec ID/Info : Picture based subtitle format used on BDs/HD-DVDs

  388. Duration : 1 h 42 min

  389. Bit rate : 32.1 kb/s

  390. Count of elements : 2527

  391. Stream size : 23.5 MiB (0%)

  392. Language : Spanish

  393. Default : No

  394. Forced : No

  395. Original source medium : Blu-ray


  396. Text #11

  397. ID : 22

  398. ID in the original source medium : 4776 (0x12A8)

  399. Format : PGS

  400. Muxing mode : zlib

  401. Codec ID : S_HDMV/PGS

  402. Codec ID/Info : Picture based subtitle format used on BDs/HD-DVDs

  403. Duration : 1 h 42 min

  404. Bit rate : 21.7 kb/s

  405. Count of elements : 1998

  406. Stream size : 15.9 MiB (0%)

  407. Language : Japanese

  408. Default : No

  409. Forced : No

  410. Original source medium : Blu-ray


  411. Text #12

  412. ID : 23

  413. ID in the original source medium : 4777 (0x12A9)

  414. Format : PGS

  415. Muxing mode : zlib

  416. Codec ID : S_HDMV/PGS

  417. Codec ID/Info : Picture based subtitle format used on BDs/HD-DVDs

  418. Duration : 1 h 42 min

  419. Bit rate : 43.3 kb/s

  420. Count of elements : 2372

  421. Stream size : 31.8 MiB (0%)

  422. Language : Japanese

  423. Default : No

  424. Forced : No

  425. Original source medium : Blu-ray


  426. Text #13

  427. ID : 24

  428. ID in the original source medium : 4778 (0x12AA)

  429. Format : PGS

  430. Muxing mode : zlib

  431. Codec ID : S_HDMV/PGS

  432. Codec ID/Info : Picture based subtitle format used on BDs/HD-DVDs

  433. Duration : 1 h 29 min

  434. Bit rate : 443 b/s

  435. Count of elements : 32

  436. Stream size : 290 KiB (0%)

  437. Language : French

  438. Default : No

  439. Forced : No

  440. Original source medium : Blu-ray


  441. Text #14

  442. ID : 25

  443. ID in the original source medium : 4779 (0x12AB)

  444. Format : PGS

  445. Muxing mode : zlib

  446. Codec ID : S_HDMV/PGS

  447. Codec ID/Info : Picture based subtitle format used on BDs/HD-DVDs

  448. Duration : 1 h 34 min

  449. Bit rate : 483 b/s

  450. Count of elements : 38

  451. Stream size : 334 KiB (0%)

  452. Language : German

  453. Default : No

  454. Forced : No

  455. Original source medium : Blu-ray


  456. Text #15

  457. ID : 26

  458. ID in the original source medium : 4780 (0x12AC)

  459. Format : PGS

  460. Muxing mode : zlib

  461. Codec ID : S_HDMV/PGS

  462. Codec ID/Info : Picture based subtitle format used on BDs/HD-DVDs

  463. Duration : 1 h 42 min

  464. Bit rate : 5 459 b/s

  465. Count of elements : 552

  466. Stream size : 3.98 MiB (0%)

  467. Language : Italian

  468. Default : No

  469. Forced : No

  470. Original source medium : Blu-ray


  471. Text #16

  472. ID : 27

  473. ID in the original source medium : 4781 (0x12AD)

  474. Format : PGS

  475. Muxing mode : zlib

  476. Codec ID : S_HDMV/PGS

  477. Codec ID/Info : Picture based subtitle format used on BDs/HD-DVDs

  478. Duration : 1 h 42 min

  479. Bit rate : 6 262 b/s

  480. Count of elements : 654

  481. Stream size : 4.57 MiB (0%)

  482. Language : Spanish

  483. Default : No

  484. Forced : No

  485. Original source medium : Blu-ray


  486. Text #17

  487. ID : 28

  488. ID in the original source medium : 4782 (0x12AE)

  489. Format : PGS

  490. Muxing mode : zlib

  491. Codec ID : S_HDMV/PGS

  492. Codec ID/Info : Picture based subtitle format used on BDs/HD-DVDs

  493. Duration : 1 h 42 min

  494. Bit rate : 7 002 b/s

  495. Count of elements : 690

  496. Stream size : 5.11 MiB (0%)

  497. Language : Spanish

  498. Default : No

  499. Forced : No

  500. Original source medium : Blu-ray


  501. Text #18

  502. ID : 29

  503. ID in the original source medium : 4783 (0x12AF)

  504. Format : PGS

  505. Muxing mode : zlib

  506. Codec ID : S_HDMV/PGS

  507. Codec ID/Info : Picture based subtitle format used on BDs/HD-DVDs

  508. Duration : 1 h 42 min

  509. Bit rate : 5 327 b/s

  510. Count of elements : 465

  511. Stream size : 3.89 MiB (0%)

  512. Language : Japanese

  513. Default : No

  514. Forced : No

  515. Original source medium : Blu-ray


  516. Menu

  517. 00:00:00.000 : en:Chapter 01

  518. 00:01:34.344 : en:Chapter 02

  519. 00:05:20.570 : en:Chapter 03

  520. 00:07:47.925 : en:Chapter 04

  521. 00:11:06.957 : en:Chapter 05

  522. 00:12:58.027 : en:Chapter 06

  523. 00:15:20.920 : en:Chapter 07

  524. 00:19:31.253 : en:Chapter 08

  525. 00:22:32.184 : en:Chapter 09

  526. 00:25:31.863 : en:Chapter 10

  527. 00:27:11.963 : en:Chapter 11

  528. 00:30:53.351 : en:Chapter 12

  529. 00:33:13.533 : en:Chapter 13

  530. 00:35:27.542 : en:Chapter 14

  531. 00:38:43.863 : en:Chapter 15

  532. 00:41:32.698 : en:Chapter 16

  533. 00:46:10.517 : en:Chapter 17

  534. 00:48:00.544 : en:Chapter 18

  535. 00:51:23.955 : en:Chapter 19

  536. 00:53:35.670 : en:Chapter 20

  537. 00:55:19.858 : en:Chapter 21

  538. 00:59:34.153 : en:Chapter 22

  539. 01:01:23.304 : en:Chapter 23

  540. 01:05:11.157 : en:Chapter 24

  541. 01:07:03.769 : en:Chapter 25

  542. 01:11:51.640 : en:Chapter 26

  543. 01:13:24.775 : en:Chapter 27

  544. 01:15:24.561 : en:Chapter 28

  545. 01:17:49.331 : en:Chapter 29

  546. 01:19:39.608 : en:Chapter 30

  547. 01:22:37.160 : en:Chapter 31

  548. 01:24:05.915 : en:Chapter 32

  549. 01:27:16.981 : en:Chapter 33

  550. 01:29:05.548 : en:Chapter 34

  551. 01:34:13.356 : en:Chapter 35

  552. 01:35:49.952 : en:Chapter 36

  553. 01:38:34.033 : en:Chapter 37

  554. 01:41:03.974 : en:Chapter 38

复制代码

雨中曲[中文字幕].Singin.in.the.Rain.1952.2160p.BluRay.REMUX.HEVC.DTS HD.MA.5.1 FGT 55.36GB  欧美电影  第2张 雨中曲[中文字幕].Singin.in.the.Rain.1952.2160p.BluRay.REMUX.HEVC.DTS HD.MA.5.1 FGT 55.36GB  欧美电影  第3张 雨中曲[中文字幕].Singin.in.the.Rain.1952.2160p.BluRay.REMUX.HEVC.DTS HD.MA.5.1 FGT 55.36GB  欧美电影  第4张




文件下载


除非特别注明,本文『雨中曲[中文字幕].Singin.in.the.Rain.1952.2160p.BluRay.REMUX.HEVC.DTS-HD.MA.5.1-FGT 55.36GB』来源于互联网机器人自动抓取,非本站原创。 浮游电影网不对本文拥有版权,如有侵犯,请联系邮箱:fuyouu#yandex.com[#换成@]投诉。我们会在15个工作日内删除。 但烦请转载时请标明出处:“本文转载于『浮游电影网』,原文地址:https://www.fuyouu.com/21615.html

评论吧骚年!

发表你的见解   

昵称*

E-mail*(建议输入,以便收到博主回复的提示邮件)

验证码*

您可以使用eMule或eMule Mod(Windows)、aMule(Win、Linux、Mac)等软件下载eD2k链接。。
eMule收藏集(.emulecollection)文件是您选中的所有链接的列表文件。eMule可以直接下载它们。
按住SHIFT键选择可以选中多个选择框。
可用文件名和大小选择器来选择文件。
文件名选择器帮您根据文件名称或后缀来选择文件。不分大小写。
符号使用:
和:空格( )、+
不包含:-
或:|
转义:一对英文引号("");
匹配开头:^
匹配结尾:$
例如:
选中所有名称中包含有“eMule”或“0.49c”字眼,但不包含有“exe”字眼的:emule|0.49c -exe
选中所有名称的开头是“eMule”,结尾是“0.49c”的:^emule 0.49c$
选中所有名称中带有“eMule 0.49c”的(必须是“eMule 0.49c”,中间没有别的字符,不能是“eMule fake 0.49c”),需要转义:"emule 0.49c"
大小选择器帮您根据文件大小选择文件。