当前位置: 首页 >> 海外电影 >> 驯悍记[中英字幕].The.Taming.of.the.Shrewd.2022.1080p.Netflix.WEB-DL.H264.DDP5.1-HDBWEB 2.82GB >> 正文

驯悍记[中英字幕].The.Taming.of.the.Shrewd.2022.1080p.Netflix.WEB-DL.H264.DDP5.1-HDBWEB 2.82GB

2022年04月23日 00:37:29     电影发布:来源于网络     电影分类:海外电影     评论(0)    

image.png

◎译 名 驯悍记 / The Taming of the Shrewd

◎片 名 Poskromienie z?o?nicy

◎年 代 2022

◎产 地 波兰

◎类 别 喜剧 / 爱情

◎语 言 波兰语

◎上映日期 2022-04-13(波兰)

◎IMDb链接 https://www.imdb.com/title/tt18970380/

◎豆瓣链接 https://movie.douban.com/subject/35864064/

◎片 长 112分钟

◎演 员 皮奥特·赛尔沃斯 Piotr Cyrwus (id:1074152)

玛格达莱娜·朗帕斯卡 Magdalena Lamparska (id:1440523)

多洛塔·兰多斯卡 Dorota Landowska (id:1111045)

Adam Malysz Adam Malysz (id:1190887)

Piotr Polk Piotr Polk (id:1132401)

米科拉吉·罗森斯基 Mikolaj Roznerski (id:1226461)

托马什·萨普里克 Tomasz Sapryk (id:1138281)

Magdalena Schejbal Magdalena Schejbal (id:1214025)

多萝塔·斯大林斯卡 Dorota Stalinska (id:1158895)

Slawomir Zapala Slawomir Zapala (id:1179416)

◎简 介

心碎的科学家搬回家乡,希望有个全新开始,但她爱算计的老哥却雇来一个陌生帅哥,打算说服她卖掉他们的土地。

  1. ##### MediaInfo ######

  2. General

  3. Unique ID : 162109575091286457488444843056909507146 (0x79F52B226C915E81408736C0DC23DA4A)

  4. Complete name : 驯悍记.The.Taming.of.the.Shrewd.2022.1080p.Netflix.WEB-DL.H264.DDP5.1-OurTV.mkv

  5. Format : Matroska

  6. Format version : Version 4

  7. File size : 2.82 GiB

  8. Duration : 1 h 52 min

  9. Overall bit rate mode : Variable

  10. Overall bit rate : 3 580 kb/s

  11. Movie name : 馴悍記

  12. Description : 心碎的科學家搬回家鄉,希望有側麻_始,但她愛算計的老哥卻雇來一偰吧鷰浉纾蛩阏f服她賣掉他們的土地。

  13. Writing application : Lavf58.76.100

  14. Writing library : Lavf58.76.100

  15. ErrorDetectionType : Per level 1

  16. DATE : 2022

  17. Video

  18. ID : 1

  19. Format : AVC

  20. Format/Info : Advanced Video Codec

  21. Format profile : [email protected]

  22. Format settings : CABAC / 4 Ref Frames

  23. Format settings, CABAC : Yes

  24. Format settings, Reference frames : 4 frames

  25. Codec ID : V_MPEG4/ISO/AVC

  26. Duration : 1 h 52 min

  27. Bit rate mode : Variable

  28. Bit rate : 2 229 kb/s

  29. Maximum bit rate : 20.0 Mb/s

  30. Width : 1 920 pixels

  31. Height : 1 080 pixels

  32. Display aspect ratio : 16:9

  33. Frame rate mode : Constant

  34. Frame rate : 25.000 FPS

  35. Color space : YUV

  36. Chroma subsampling : 4:2:0

  37. Bit depth : 8 bits

  38. Scan type : Progressive

  39. Bits/(Pixel*Frame) : 0.043

  40. Stream size : 1.75 GiB (62%)

  41. Title : 264:fmt=264:moovts=-1:fps=25:deps:[email protected]

  42. Writing library : x264 core 148 r2727 7d026e8

  43. Encoding settings : cabac=1 / ref=4 / deblock=1:0:0 / analyse=0x3:0x111 / me=umh / subme=10 / psy=1 / psy_rd=1.00:0.00 / mixed_ref=1 / me_range=120 / chroma_me=1 / trellis=2 / 8x8dct=1 / cqm=0 / deadzone=21,11 / fast_pskip=1 / chroma_qp_offset=-2 / threads=8 / lookahead_threads=2 / sliced_threads=0 / nr=0 / decimate=1 / interlaced=0 / NTMzNTQ= / bluray_compat=0 / stitchable=1 / constrained_intra=0 / bframes=16 / b_pyramid=2 / b_adapt=2 / b_bias=0 / direct=3 / weightb=1 / open_gop=0 / weightp=2 / keyint=250 / keyint_min=126 / scenecut=0 / intra_refresh=0 / rc_lookahead=250 / rc=crf / mbtree=1 / crf=24.0 / qcomp=0.50 / qpmin=6 / qpmax=51 / qpstep=4 / vbv_maxrate=20000 / vbv_bufsize=25000 / crf_max=0.0 / nal_hrd=vbr / filler=0 / NTMzNTQ=LmsMAP37EqsCpk / ip_ratio=1.40 / aq=1:0.80

  44. Default : Yes

  45. Forced : No

  46. VENDOR_ID : [0][0][0][0]

  47. Audio #1

  48. ID : 2

  49. Format : E-AC-3

  50. Format/Info : Enhanced AC-3

  51. Commercial name : Dolby Digital Plus

  52. Codec ID : A_EAC3

  53. Duration : 1 h 52 min

  54. Bit rate mode : Constant

  55. Bit rate : 640 kb/s

  56. Channel(s) : 6 channels

  57. Channel layout : L R C LFE Ls Rs

  58. Sampling rate : 48.0 kHz

  59. Frame rate : 31.250 FPS (1536 SPF)

  60. Bit depth : 32 bits

  61. Compression mode : Lossy

  62. Stream size : 516 MiB (18%)

  63. Title : 英文

  64. Language : English

  65. Service kind : Complete Main

  66. Default : Yes

  67. Forced : No

  68. VENDOR_ID : [0][0][0][0]

  69. Audio #2

  70. ID : 3

  71. Format : E-AC-3

  72. Format/Info : Enhanced AC-3

  73. Commercial name : Dolby Digital Plus

  74. Codec ID : A_EAC3

  75. Duration : 1 h 52 min

  76. Bit rate mode : Constant

  77. Bit rate : 640 kb/s

  78. Channel(s) : 6 channels

  79. Channel layout : L R C LFE Ls Rs

  80. Sampling rate : 48.0 kHz

  81. Frame rate : 31.250 FPS (1536 SPF)

  82. Bit depth : 32 bits

  83. Compression mode : Lossy

  84. Stream size : 516 MiB (18%)

  85. Title : 波蘭文 [原始]

  86. Language : Polish

  87. Service kind : Complete Main

  88. Default : No

  89. Forced : No

  90. VENDOR_ID : [0][0][0][0]

  91. Text #1

  92. ID : 4

  93. Format : UTF-8

  94. Codec ID : S_TEXT/UTF8

  95. Codec ID/Info : UTF-8 Plain Text

  96. Duration : 1 h 51 min

  97. Title : 丹麥文

  98. Writing library : Lavc58.134.100 srt

  99. Language : Danish

  100. Default : Yes

  101. Forced : No

  102. Text #2

  103. ID : 5

  104. Format : UTF-8

  105. Codec ID : S_TEXT/UTF8

  106. Codec ID/Info : UTF-8 Plain Text

  107. Duration : 1 h 47 min

  108. Title : 英文

  109. Writing library : Lavc58.134.100 srt

  110. Language : English

  111. Default : No

  112. Forced : No

  113. Text #3

  114. ID : 6

  115. Format : UTF-8

  116. Codec ID : S_TEXT/UTF8

  117. Codec ID/Info : UTF-8 Plain Text

  118. Duration : 1 h 47 min

  119. Title : 英文 [CC]

  120. Writing library : Lavc58.134.100 srt

  121. Language : English

  122. Default : No

  123. Forced : No

  124. Text #4

  125. ID : 7

  126. Format : UTF-8

  127. Codec ID : S_TEXT/UTF8

  128. Codec ID/Info : UTF-8 Plain Text

  129. Duration : 1 h 51 min

  130. Title : 西班牙

  131. Writing library : Lavc58.134.100 srt

  132. Language : Spanish

  133. Default : No

  134. Forced : No

  135. Text #5

  136. ID : 8

  137. Format : UTF-8

  138. Codec ID : S_TEXT/UTF8

  139. Codec ID/Info : UTF-8 Plain Text

  140. Duration : 1 h 51 min

  141. Title : 歐洲西班牙文

  142. Writing library : Lavc58.134.100 srt

  143. Language : Spanish

  144. Default : No

  145. Forced : No

  146. Text #6

  147. ID : 9

  148. Format : UTF-8

  149. Codec ID : S_TEXT/UTF8

  150. Codec ID/Info : UTF-8 Plain Text

  151. Duration : 1 h 51 min

  152. Title : 印尼語

  153. Writing library : Lavc58.134.100 srt

  154. Language : Indonesian

  155. Default : No

  156. Forced : No

  157. Text #7

  158. ID : 10

  159. Format : UTF-8

  160. Codec ID : S_TEXT/UTF8

  161. Codec ID/Info : UTF-8 Plain Text

  162. Duration : 1 h 51 min

  163. Title : 義大利文

  164. Writing library : Lavc58.134.100 srt

  165. Language : Italian

  166. Default : No

  167. Forced : No

  168. Text #8

  169. ID : 11

  170. Format : UTF-8

  171. Codec ID : S_TEXT/UTF8

  172. Codec ID/Info : UTF-8 Plain Text

  173. Duration : 1 h 47 min

  174. Title : 日文

  175. Writing library : Lavc58.134.100 srt

  176. Language : Japanese

  177. Default : No

  178. Forced : No

  179. Text #9

  180. ID : 12

  181. Format : UTF-8

  182. Codec ID : S_TEXT/UTF8

  183. Codec ID/Info : UTF-8 Plain Text

  184. Duration : 1 h 51 min

  185. Title : 韓文

  186. Writing library : Lavc58.134.100 srt

  187. Language : Korean

  188. Default : No

  189. Forced : No

  190. Text #10

  191. ID : 13

  192. Format : UTF-8

  193. Codec ID : S_TEXT/UTF8

  194. Codec ID/Info : UTF-8 Plain Text

  195. Duration : 1 h 51 min

  196. Title : 荷蘭文

  197. Writing library : Lavc58.134.100 srt

  198. Language : Dutch

  199. Default : No

  200. Forced : No

  201. Text #11

  202. ID : 14

  203. Format : UTF-8

  204. Codec ID : S_TEXT/UTF8

  205. Codec ID/Info : UTF-8 Plain Text

  206. Duration : 1 h 50 min

  207. Title : 波蘭文 [CC]

  208. Writing library : Lavc58.134.100 srt

  209. Language : Polish

  210. Default : No

  211. Forced : No

  212. Text #12

  213. ID : 15

  214. Format : UTF-8

  215. Codec ID : S_TEXT/UTF8

  216. Codec ID/Info : UTF-8 Plain Text

  217. Duration : 1 h 51 min

  218. Title : 烏克蘭文

  219. Writing library : Lavc58.134.100 srt

  220. Language : Ukrainian

  221. Default : No

  222. Forced : No

  223. Text #13

  224. ID : 16

  225. Format : UTF-8

  226. Codec ID : S_TEXT/UTF8

  227. Codec ID/Info : UTF-8 Plain Text

  228. Duration : 1 h 51 min

  229. Title : 越南文

  230. Writing library : Lavc58.134.100 srt

  231. Language : Vietnamese

  232. Default : No

  233. Forced : No

  234. Text #14

  235. ID : 17

  236. Format : UTF-8

  237. Codec ID : S_TEXT/UTF8

  238. Codec ID/Info : UTF-8 Plain Text

  239. Duration : 1 h 51 min

  240. Title : 簡體中文

  241. Writing library : Lavc58.134.100 srt

  242. Language : Chinese

  243. Default : No

  244. Forced : No

  245. Text #15

  246. ID : 18

  247. Format : UTF-8

  248. Codec ID : S_TEXT/UTF8

  249. Codec ID/Info : UTF-8 Plain Text

  250. Duration : 1 h 51 min

  251. Title : 繁體中文

  252. Writing library : Lavc58.134.100 srt

  253. Language : Chinese

  254. Default : No

  255. Forced : No


复制代码



文件下载


除非特别注明,本文『驯悍记[中英字幕].The.Taming.of.the.Shrewd.2022.1080p.Netflix.WEB-DL.H264.DDP5.1-HDBWEB 2.82GB』来源于互联网机器人自动抓取,非本站原创。 浮游电影网不对本文拥有版权,如有侵犯,请联系邮箱:fuyouu#yandex.com[#换成@]投诉。我们会在15个工作日内删除。 但烦请转载时请标明出处:“本文转载于『浮游电影网』,原文地址:https://www.fuyouu.com/21614.html

评论吧骚年!

发表你的见解   

昵称*

E-mail*(建议输入,以便收到博主回复的提示邮件)

验证码*

您可以使用eMule或eMule Mod(Windows)、aMule(Win、Linux、Mac)等软件下载eD2k链接。。
eMule收藏集(.emulecollection)文件是您选中的所有链接的列表文件。eMule可以直接下载它们。
按住SHIFT键选择可以选中多个选择框。
可用文件名和大小选择器来选择文件。
文件名选择器帮您根据文件名称或后缀来选择文件。不分大小写。
符号使用:
和:空格( )、+
不包含:-
或:|
转义:一对英文引号("");
匹配开头:^
匹配结尾:$
例如:
选中所有名称中包含有“eMule”或“0.49c”字眼,但不包含有“exe”字眼的:emule|0.49c -exe
选中所有名称的开头是“eMule”,结尾是“0.49c”的:^emule 0.49c$
选中所有名称中带有“eMule 0.49c”的(必须是“eMule 0.49c”,中间没有别的字符,不能是“eMule fake 0.49c”),需要转义:"emule 0.49c"
大小选择器帮您根据文件大小选择文件。