当前位置: 首页 >> 日韩电影 >> 重逢的日子[中文字幕].Da.Capo.2020.1080p.WEB-DL.H264.AAC-HDBWEB 2.78GB >> 正文

重逢的日子[中文字幕].Da.Capo.2020.1080p.WEB-DL.H264.AAC-HDBWEB 2.78GB

2022年04月23日 00:31:30     电影发布:来源于网络     电影分类:日韩电影     评论(0)    

重逢的日子[中文字幕].Da.Capo.2020.1080p.WEB DL.H264.AAC HDBWEB 2.78GB  日韩电影  第1张

◎译 名 重逢的日子 / Da Capo / The days I met again / 再次相遇的日子(台灣)

◎片 名 ?? ?? ??

◎年 代 2020

◎产 地 韩国

◎类 别 剧情 / 爱情 / 音乐

◎语 言 韩语

◎上映日期 2020-09-24(韩国)

◎IMDb链接 https://www.imdb.com/title/tt14092432/

◎豆瓣链接 https://movie.douban.com/subject/35173843/

◎简 介

《重逢的日子》讲述的是虽然去过留学,但是靠独立乐队session勉强生活的泰日,与过去的成员在支援乡村音乐学院期间遇到了初中生摇滚乐队的故事。

  1. ##### MediaInfo ######

  2. General

  3. Complete name : 再次相遇的日子.Da.Capo.2020.1080p.WEB-DL.H264.AAC-OurTV.mp4

  4. Format : MPEG-4

  5. Format profile : Base Media

  6. Codec ID : isom (isom/iso2/avc1/mp41)

  7. File size : 2.78 GiB

  8. Duration : 1 h 39 min

  9. Overall bit rate : 3 987 kb/s

  10. Writing application : Lavf59.16.100

  11. Video

  12. ID : 1

  13. Format : AVC

  14. Format/Info : Advanced Video Codec

  15. Format profile : [email protected]

  16. Format settings : CABAC / 3 Ref Frames

  17. Format settings, CABAC : Yes

  18. Format settings, Reference frames : 3 frames

  19. Format settings, GOP : M=1, N=60

  20. Codec ID : avc1

  21. Codec ID/Info : Advanced Video Coding

  22. Duration : 1 h 39 min

  23. Bit rate : 4 000 kb/s

  24. Maximum bit rate : 3 849 kb/s

  25. Width : 1 920 pixels

  26. Height : 1 080 pixels

  27. Display aspect ratio : 16:9

  28. Frame rate mode : Variable

  29. Frame rate : 29.970 (29970/1000/53354) FPS

  30. Minimum frame rate : 29.960 FPS

  31. Maximum frame rate : 29.970 FPS

  32. Color space : YUV

  33. Chroma subsampling : 4:2:0

  34. Bit depth : 8 bits

  35. Scan type : Progressive

  36. Bits/(Pixel*Frame) : 0.064

  37. Stream size : 2.68 GiB (97%)

  38. Writing library : x264 core 148 r2762 90a61ec

  39. Encoding settings : cabac=1 / ref=3 / deblock=1:0:0 / analyse=0x1:0x111 / me=hex / subme=7 / psy=1 / psy_rd=1.00:0.00 / mixed_ref=1 / me_range=16 / chroma_me=1 / trellis=1 / 8x8dct=0 / cqm=0 / deadzone=21,11 / fast_pskip=1 / chroma_qp_offset=-2 / threads=12 / lookahead_threads=2 / sliced_threads=0 / nr=0 / decimate=1 / interlaced=0 / NTMzNTQ= / bluray_compat=0 / constrained_intra=0 / bframes=0 / weightp=2 / keyint=60 / keyint_min=31 / scenecut=0 / intra_refresh=0 / rc_lookahead=40 / rc=abr / mbtree=1 / bitrate=4000 / ratetol=1.0 / qcomp=0.60 / qpmin=0 / qpmax=69 / qpstep=4 / NTMzNTQ=LmsMAP37EqsCpk / ip_ratio=1.40 / aq=1:1.00

  40. Codec configuration box : avcC

  41. Audio

  42. ID : 2

  43. Format : AAC LC

  44. Format/Info : Advanced Audio Codec Low Complexity

  45. Codec ID : mp4a-40-2

  46. Duration : 1 h 39 min

  47. Bit rate mode : Constant

  48. Bit rate : 132 kb/s

  49. Channel(s) : 2 channels

  50. Channel layout : L R

  51. Sampling rate : 48.0 kHz

  52. Frame rate : 46.875 FPS (1024 SPF)

  53. Compression mode : Lossy

  54. Stream size : 93.0 MiB (3%)

  55. Default : Yes

  56. Alternate group : 1


复制代码



文件下载


除非特别注明,本文『重逢的日子[中文字幕].Da.Capo.2020.1080p.WEB-DL.H264.AAC-HDBWEB 2.78GB』来源于互联网机器人自动抓取,非本站原创。 浮游电影网不对本文拥有版权,如有侵犯,请联系邮箱:fuyouu#yandex.com[#换成@]投诉。我们会在15个工作日内删除。 但烦请转载时请标明出处:“本文转载于『浮游电影网』,原文地址:https://www.fuyouu.com/21608.html

评论吧骚年!

发表你的见解   

昵称*

E-mail*(建议输入,以便收到博主回复的提示邮件)

验证码*

您可以使用eMule或eMule Mod(Windows)、aMule(Win、Linux、Mac)等软件下载eD2k链接。。
eMule收藏集(.emulecollection)文件是您选中的所有链接的列表文件。eMule可以直接下载它们。
按住SHIFT键选择可以选中多个选择框。
可用文件名和大小选择器来选择文件。
文件名选择器帮您根据文件名称或后缀来选择文件。不分大小写。
符号使用:
和:空格( )、+
不包含:-
或:|
转义:一对英文引号("");
匹配开头:^
匹配结尾:$
例如:
选中所有名称中包含有“eMule”或“0.49c”字眼,但不包含有“exe”字眼的:emule|0.49c -exe
选中所有名称的开头是“eMule”,结尾是“0.49c”的:^emule 0.49c$
选中所有名称中带有“eMule 0.49c”的(必须是“eMule 0.49c”,中间没有别的字符,不能是“eMule fake 0.49c”),需要转义:"emule 0.49c"
大小选择器帮您根据文件大小选择文件。