当前位置: 首页 >> 国产电影 >> 杨贵妃[国语配音/中文字幕].Yang.Gui.Fei.1992.WEB-DL.1080p.H265.AAC-HOMEWEB 4.58GB >> 正文

杨贵妃[国语配音/中文字幕].Yang.Gui.Fei.1992.WEB-DL.1080p.H265.AAC-HOMEWEB 4.58GB

2022年04月23日 00:30:35     电影发布:来源于网络     电影分类:国产电影     评论(0)    

杨贵妃[国语配音/中文字幕].Yang.Gui.Fei.1992.WEB DL.1080p.H265.AAC HOMEWEB 4.58GB  国产电影  第1张

◎译 名 杨贵妃

◎年 代 1992

◎产 地 中国大陆

◎类 别 剧情 / 爱情 / 歌舞 / 历史 / 古装

◎语 言 汉语普通话

◎IMDb链接 https://www.imdb.com/title/tt10261262/

◎豆瓣评分 8.4/10 (3432人评价)

◎豆瓣链接 https://movie.douban.com/subject/2080809/

◎片 长 140分钟

◎导 演 陈家林 Jialin Chen (id:1314186)

◎编 剧 白桦 Hua Bai (id:1369124)

张弦 Xian Zhang (id:1328145)

国弘威雄 Takeo Kunihiro (id:1289110)

濮存昕 Cunxin Pu (id:1274855)

◎演 员 周洁 Jie Zhou (id:1315858)

刘文治 Wenzhi Liu (id:1305111)

李如平 Ruping Li (id:1349491)

李建群 Jianqun Li (id:1313737)

濮存昕 Cunxin Pu (id:1274855)

林达信 Daxin Lin (id:1318343)

程文宽 Wenkuan Cheng (id:1405884)

廖学秋 Xueqiu Liao (id:1318037)

娄际成 Jicheng Lou (id:1337050)

颜彼得 Bide Yan (id:1021866)

侯永生 Yongsheng Hou (id:1369438)

韩再峰 Zaifeng Han (id:1328030)

巴立红 Lihong Ba (id:1405885)

李静莉 Jingli Li (id:1341014)

石维坚 Weijian Shi (id:1315679)

邵万林 Wanlin Shao (id:1323178)

高兰村 Lancun Gao (id:1313755)

李明 Ming Li (id:1449489)

王澜 Lan Wang (id:1275545)

李龙基 Loong Kei Lee (id:1345881)

靳雨生 Yusheng Jin (id:1458540)

王宪 Xian Wang (id:1351203)

姚盛昌 Shengchang Yao (id:1351204)

张兴文 Xingwen Zhang (id:1410645)

赵君 Jun Zhao (id:1405841)

李建群 Jianqun Li (id:1313737)

杨树云 Shuyun Yang (id:1398505)

陈秉中 Bingzhong Chen (id:1412850)

◎简 介

影片刻画了一个美丽善良、知音律、晓歌舞、喜爱荣华富贵,不问朝政大事,三千宠爱集一身而又导致辗转蛾眉马前死,君王有泪救不得的宫廷贵妇形象。

◎获奖情况 (共4项)

第13届中国电影金鸡奖 (1993)

最佳男配角(提名)

└──李如平 (id:1349491)

最佳美术

最佳服装

└──李建群 (id:1313737)

第16届大众电影百花奖 (1993)

最佳故事片

  1. ##### MediaInfo ######

  2. General

  3. Unique ID : 75786915006518063017389346138980972951 (0x3904076603E3DB53CE0A46C801A57997)

  4. Complete name : Yang Gui Fei 1992 WEB-DL 1080p H265 AAC-Dave.mkv

  5. Format : Matroska

  6. Format version : Version 4

  7. File size : 4.58 GiB

  8. Duration : 2 h 19 min

  9. Overall bit rate : 4 689 kb/s

  10. Movie name : 杨贵妃

  11. Encoded date : UTC 2022-04-19 23:59:19

  12. Writing application : mkvmerge v63.0.0 ('Everything') 64-bit

  13. Writing library : libebml v1.4.2 + libmatroska v1.6.4

  14. Cover : Yes

  15. Attachments : cover.png

  16. Video

  17. ID : 1

  18. Format : HEVC

  19. Format/Info : High Efficiency Video Coding

  20. Format profile : [email protected]@Main

  21. Codec ID : V_MPEGH/ISO/HEVC

  22. Duration : 2 h 19 min

  23. Bit rate : 4 367 kb/s

  24. Width : 1 920 pixels

  25. Height : 1 064 pixels

  26. Display aspect ratio : 16:9

  27. Frame rate mode : Constant

  28. Frame rate : 24.000 FPS

  29. Color space : YUV

  30. Chroma subsampling : 4:2:0

  31. Bit depth : 8 bits

  32. Bits/(Pixel*Frame) : 0.089

  33. Stream size : 4.26 GiB (93%)

  34. Default : Yes

  35. Forced : No

  36. Audio

  37. ID : 2

  38. Format : AAC LC

  39. Format/Info : Advanced Audio Codec Low Complexity

  40. Codec ID : A_AAC-2

  41. Duration : 2 h 19 min

  42. Bit rate : 320 kb/s

  43. Channel(s) : 2 channels

  44. Channel layout : L R

  45. Sampling rate : 48.0 kHz

  46. Frame rate : 46.875 FPS (1024 SPF)

  47. Compression mode : Lossy

  48. Stream size : 320 MiB (7%)

  49. Language : Chinese

  50. Default : Yes

  51. Forced : No



文件下载


除非特别注明,本文『杨贵妃[国语配音/中文字幕].Yang.Gui.Fei.1992.WEB-DL.1080p.H265.AAC-HOMEWEB 4.58GB』来源于互联网机器人自动抓取,非本站原创。 浮游电影网不对本文拥有版权,如有侵犯,请联系邮箱:fuyouu#yandex.com[#换成@]投诉。我们会在15个工作日内删除。 但烦请转载时请标明出处:“本文转载于『浮游电影网』,原文地址:https://www.fuyouu.com/21607.html

评论吧骚年!

发表你的见解   

昵称*

E-mail*(建议输入,以便收到博主回复的提示邮件)

验证码*

您可以使用eMule或eMule Mod(Windows)、aMule(Win、Linux、Mac)等软件下载eD2k链接。。
eMule收藏集(.emulecollection)文件是您选中的所有链接的列表文件。eMule可以直接下载它们。
按住SHIFT键选择可以选中多个选择框。
可用文件名和大小选择器来选择文件。
文件名选择器帮您根据文件名称或后缀来选择文件。不分大小写。
符号使用:
和:空格( )、+
不包含:-
或:|
转义:一对英文引号("");
匹配开头:^
匹配结尾:$
例如:
选中所有名称中包含有“eMule”或“0.49c”字眼,但不包含有“exe”字眼的:emule|0.49c -exe
选中所有名称的开头是“eMule”,结尾是“0.49c”的:^emule 0.49c$
选中所有名称中带有“eMule 0.49c”的(必须是“eMule 0.49c”,中间没有别的字符,不能是“eMule fake 0.49c”),需要转义:"emule 0.49c"
大小选择器帮您根据文件大小选择文件。