当前位置: 首页 >> 国产电影 >> 茶馆[国语配音/中文字幕].The.Teahouse.1982.WEB-DL.4K.H265.AAC-HOMEWEB 2.70GB >> 正文

茶馆[国语配音/中文字幕].The.Teahouse.1982.WEB-DL.4K.H265.AAC-HOMEWEB 2.70GB

2022年04月23日 00:27:16     电影发布:来源于网络     电影分类:国产电影     评论(0)    

茶馆[国语配音/中文字幕].The.Teahouse.1982.WEB DL.4K.H265.AAC HOMEWEB 2.70GB  国产电影  第1张

◎译 名 茶馆 / The Teahouse

◎年 代 1982

◎产 地 中国大陆

◎类 别 剧情 / 历史

◎语 言 汉语普通话

◎上映日期 1982(中国大陆)

◎IMDb链接 https://www.imdb.com/title/tt1395030/

◎豆瓣评分 9.5/10 (97073人评价)

◎豆瓣链接 https://movie.douban.com/subject/1461403/

◎片 长 118分钟

◎导 演 谢添 Tian Xie (id:1021831)

焦菊隐 Juyin Jiao (id:1410434)

夏淳 Chun Xia (id:1445807)

◎编 剧 老舍 Lao-She (id:1109851)

◎演 员 于是之 Shizhi Yu (id:1312999)

郑榕 Rong Zhen (id:1313295)

蓝天野 Tianye Lan (id:1313292)

英若诚 Ruocheng Ying (id:1275586)

黄宗洛 Zongluo Huang (id:1275898)

童超 Chao Tong (id:1359094)

金昭 Zhao Jin (id:1313294)

林连昆 Liankun Lin (id:1290005)

牛星丽 Xingli Niu (id:1293207)

谭宗尧 Zongyao Tan (id:1318513)

童弟 Di Tong (id:1275233)

吴淑昆 Shukun Wu (id:1321934)

胡宗温 Zongwen Hu (id:1359084)

程中 Zhong Cheng (id:1369080)

李大千 Daqian Li (id:1415108)

李源 Yuan Li (id:1430556)

李翔 Xiang Li (id:1430555)

张瞳 Tong Zhang (id:1313778)

任宝贤 Baoxian Ren (id:1357073)

尚丽娟 Lijuan Shang (id:1359085)

米铁增 Tiezen Mi (id:1315282)

田春奎 Chunkui Tian (id:1371879)

冯增祥 Zengxiang Feng (id:1430553)

雷飞 Fei Lei (id:1430554)

林东升 Dongsheng Lin (id:1416035)

孟瑾 Jin Meng (id:1370652)

孙峻峰 Junfeng Sun (id:1430558)

平原 Yuan Ping (id:1430557)

曹世骧 Shixiang Cao (id:1430551)

王大年 Danian Wang (id:1401495)

王淑华 Shuhua Wang (id:1443955)

张华 Hua Zhang (id:1411731)

丁海涛 Haitao Ding (id:1430552)

朱旭 Xu Zhu (id:1275118)

孙敬修 Jingxiu Sun (id:1370817)

董行佶 Xingji Dong (id:1326988)

彭修文 Xiuwen Peng (id:1444673)

郑煜元 Yuyuan Zheng (id:1413611)

蒋国良 Guoliang Jiang (id:1445808)

张来福 Laifu Zhang (id:1445809)

赵秀琴 Xiuqin Zhao (id:1430559)

张文启 Wenqi Zhang (id:1412372)

杨允铭 Yunming Yang (id:1389276)

杨予和 Yuhe Yang (id:1424894)

王泽生 Zesheng Wang (id:1445604)

王文冲 Wenchong Wang (id:1429244)

关哉生 Zaisheng Guan (id:1445810)

刘惠萍 Huiping Liu (id:1401393)

郭桐 Tong Guo (id:1414444)

王希钟 Xizhong Wang (id:1300410)

王学朴 Xuepu Wang (id:1403093)

王振荣 Zhenrong Wang (id:1331290)

陈燕嬉 Yanxi Chen (id:1334745)

刘万富 Wanfu Liu (id:1409775)

冯钦 Qin Feng (id:1445812)

王亚林 Yalin Wang (id:1445612)

李绪文 Xuwen Li (id:1445811)

◎简 介

世纪之交,古老的中国正迎来前所未有的巨大变革。老态龙钟的大清王朝摇摇欲坠,六君子的鲜血无法阻止历史车轮的滚动,老北京城的上空风云变幻,波谲云诡。王利发(于是之 饰),北京城内裕泰茶馆的年轻掌柜。他谨记父亲的教诲,体面周全地迎送四方宾客。小小的茶馆内,三教九流各色人等穿梭于此:提笼架鸟哀叹时运的松二爷(黄宗洛 饰);慨叹国之将亡的刚毅满人常四爷(郑榕 饰);一心谋求实业救国的秦仲义(蓝天野 饰);丧尽天良买卖人口的刘麻子(英若诚 饰);打算娶老婆的庞太监(童超 饰)……你方唱罢我登场,小小茶馆之内演尽世间的沧桑与凄凉……

本片根据老舍同名原著改编,并1983年第3届中国电影金鸡奖特别奖、文化部1982年优秀影片奖特别奖。

◎获奖情况 (共1项)

第3届中国电影金鸡奖 (1983)

评委会特别奖 特别影片奖

  1. ##### MediaInfo ######

  2. General

  3. Unique ID : 156363705811553734638541199454213760477 (0x75A28DE829D66E79F54D7064C003E5DD)

  4. Complete name : The Teahouse 1982 WEB-DL 4K H265 AAC-Dave.mkv

  5. Format : Matroska

  6. Format version : Version 4

  7. File size : 2.70 GiB

  8. Duration : 1 h 58 min

  9. Overall bit rate : 3 271 kb/s

  10. Movie name : 茶馆

  11. Encoded date : UTC 2022-04-21 19:37:06

  12. Writing application : mkvmerge v63.0.0 ('Everything') 64-bit

  13. Writing library : libebml v1.4.2 + libmatroska v1.6.4

  14. Cover : Yes

  15. Attachments : cover.png

  16. Video

  17. ID : 1

  18. Format : HEVC

  19. Format/Info : High Efficiency Video Coding

  20. Format profile : [email protected]@Main

  21. Codec ID : V_MPEGH/ISO/HEVC

  22. Duration : 1 h 58 min

  23. Bit rate : 3 078 kb/s

  24. Width : 3 696 pixels

  25. Height : 2 160 pixels

  26. Display aspect ratio : 1.711

  27. Frame rate mode : Constant

  28. Frame rate : 25.000 FPS

  29. Color space : YUV

  30. Chroma subsampling : 4:2:0

  31. Bit depth : 8 bits

  32. Bits/(Pixel*Frame) : 0.015

  33. Stream size : 2.54 GiB (94%)

  34. Default : Yes

  35. Forced : No

  36. Audio

  37. ID : 2

  38. Format : AAC LC

  39. Format/Info : Advanced Audio Codec Low Complexity

  40. Codec ID : A_AAC-2

  41. Duration : 1 h 58 min

  42. Bit rate : 192 kb/s

  43. Channel(s) : 2 channels

  44. Channel layout : L R

  45. Sampling rate : 44.1 kHz

  46. Frame rate : 43.066 FPS (1024 SPF)

  47. Compression mode : Lossy

  48. Stream size : 161 MiB (6%)

  49. Language : Chinese

  50. Default : Yes

  51. Forced : No



文件下载


除非特别注明,本文『茶馆[国语配音/中文字幕].The.Teahouse.1982.WEB-DL.4K.H265.AAC-HOMEWEB 2.70GB』来源于互联网机器人自动抓取,非本站原创。 浮游电影网不对本文拥有版权,如有侵犯,请联系邮箱:fuyouu#yandex.com[#换成@]投诉。我们会在15个工作日内删除。 但烦请转载时请标明出处:“本文转载于『浮游电影网』,原文地址:https://www.fuyouu.com/21605.html

评论吧骚年!

发表你的见解   

昵称*

E-mail*(建议输入,以便收到博主回复的提示邮件)

验证码*

您可以使用eMule或eMule Mod(Windows)、aMule(Win、Linux、Mac)等软件下载eD2k链接。。
eMule收藏集(.emulecollection)文件是您选中的所有链接的列表文件。eMule可以直接下载它们。
按住SHIFT键选择可以选中多个选择框。
可用文件名和大小选择器来选择文件。
文件名选择器帮您根据文件名称或后缀来选择文件。不分大小写。
符号使用:
和:空格( )、+
不包含:-
或:|
转义:一对英文引号("");
匹配开头:^
匹配结尾:$
例如:
选中所有名称中包含有“eMule”或“0.49c”字眼,但不包含有“exe”字眼的:emule|0.49c -exe
选中所有名称的开头是“eMule”,结尾是“0.49c”的:^emule 0.49c$
选中所有名称中带有“eMule 0.49c”的(必须是“eMule 0.49c”,中间没有别的字符,不能是“eMule fake 0.49c”),需要转义:"emule 0.49c"
大小选择器帮您根据文件大小选择文件。