当前位置: 首页 >> 欧美电影 >> 第一滴血[共4部合集][简繁英字幕].Rambo.1-4.1982-2008.UHD.BluRay.2160p.DTS-HD.MA.TrueHD.Atmos.x265.10bit.HDR-ALT 91 >> 正文

第一滴血[共4部合集][简繁英字幕].Rambo.1-4.1982-2008.UHD.BluRay.2160p.DTS-HD.MA.TrueHD.Atmos.x265.10bit.HDR-ALT 91

2022年04月23日 00:25:23     电影发布:来源于网络     电影分类:欧美电影     评论(0)    

第一滴血[共4部合集][简繁英字幕].Rambo.1 4.1982 2008.UHD.BluRay.2160p.DTS HD.MA.TrueHD.Atmos.x265.10bit.HDR ALT 91  欧美电影  第1张

◎译 名 第一滴血 / 兰博 / Rambo: First Blood

◎片 名 First Blood

◎年 代 1982

◎产 地 美国

◎类 别 剧情 / 动作 / 冒险

◎语 言 英语

◎上映日期 1982-10-22

◎IMDb链接 https://www.imdb.com/title/tt0083944/

◎豆瓣评分 8.3/10 (83017人评价)

◎豆瓣链接 https://movie.douban.com/subject/1294323/

◎片 长 93分钟

◎导 演 特德·科特切夫 Ted Kotcheff (id:1000507)

◎编 剧 迈克尔·科佐尔 Michael Kozoll (id:1288965)

威廉·沙克海姆 William Sackheim (id:1042232)

西尔维斯特·史泰龙 Sylvester Stallone (id:1047996)

◎演 员 西尔维斯特·史泰龙 Sylvester Stallone (id:1047996)

理查德·克里纳 Richard Crenna (id:1036515)

布莱恩·丹内利 Brian Dennehy (id:1013729)

比尔·麦金尼 Bill McKinney (id:1115045)

杰克·斯塔雷特 Jack Starrett (id:1041333)

Michael Talbott Michael Talbott (id:1160273)

克里斯·马尔基 Chris Mulkey (id:1048223)

约翰·麦克利亚姆 John McLiam (id:1007184)

大卫·卡罗素 David Caruso (id:1013852)

查尔斯·A·坦伯罗 Charles A. Tamburro (id:1298880)

斯蒂芬·E·米勒 Stephen E. Miller (id:1323247)

布鲁斯·格林伍德 Bruce Greenwood (id:1025206)

加里·海瑟林顿 Gary Hetherington (id:1093898)

史蒂芬·常 Stephen Chang (id:1355408)

蘇琪·白 Suzee Pai (id:1126227)

John Rigg John Rigg (id:1146860)

Craig Huston Craig Huston (id:1287206)

巴茨·费特香斯 Buzz Feitshans (id:1283529)

沃尔夫·克罗伊格 Wolf Kroeger (id:1289046)

Craig Huston Craig Huston (id:1287206)

汤姆·诺伯 Thom Noble (id:1293221)

◎简 介

退伍军人兰博(西尔维斯特?史泰龙Sylvester Stallone 饰)从越南回国,他回到已显得陌生的原居小镇,当地警长(布莱恩?丹内利 Brian Dennehy 饰)看到这个退伍军人的第一眼起,就开始对兰博百般挑剔,甚至将他带回警局肆意侮辱,不堪忍受责打的兰博袭警之后逃跑。警长召集大批警察展开对兰博的追捕,兰博逃至荒山野林之中,不断用自己在越战中掌握的游击战术对警察展开反击,他抢劫了一辆武器运输车返回小镇烧毁了商店,法律和武器都不能阻止兰博了。兰博在越战时的长官上校(理查德?克里纳 Richard Crenna 饰)出现,劝说兰博放下枪械,愤懑已久的兰博吼出了自己的困惑与不甘……

  1. 合集文件列表:

  2. 1.First.Blood.1982.UHD.BluRay.2160p.DTS-HD.MA5.1.x265.10bit.HDR-ALT.mkv 23.98GB

  3. 2.Rambo.2.1985.UHD.BluRay.2160p.DTS-HD.MA5.1.x265.10bit.HDR-ALT.mkv 22.67GB

  4. 3.Rambo.3.1988.UHD.BluRay.2160p.DTS-HD.MA5.1.x265.10bit.HDR-ALT.mkv 27.31GB

  5. 4.Rambo.2008.UHD.BluRay.2160p.TrueHD.Atmos.7.1.x265.10bit.HDR-ALT.mkv 17.52GB


复制代码

  1. ##### MediaInfo ######

  2. General

  3. Unique ID : 220288988494061394171996530507012863026 (0xA5BA1DADFA7491CAF9BB7AF6DD637432)

  4. Complete name : First.Blood.1982.UHD.BluRay.2160p.DTS-HD.MA5.1.x265.10bit.HDR-BeiTai.mkv

  5. Format : Matroska

  6. Format version : Version 4

  7. File size : 24.0 GiB

  8. Duration : 1 h 33 min

  9. Overall bit rate mode : Variable

  10. Overall bit rate : 36.7 Mb/s

  11. Encoded date : UTC 2019-11-07 03:14:46

  12. Writing application : mkvmerge v39.0.0 ('In The Waiting Line') 64-bit

  13. Writing library : libebml v1.3.9 + libmatroska v1.5.2

  14. Video

  15. ID : 1

  16. Format : HEVC

  17. Format/Info : High Efficiency Video Coding

  18. Format profile : Main [email protected]@High

  19. HDR format : SMPTE ST 2086, HDR10 compatible

  20. Codec ID : V_MPEGH/ISO/HEVC

  21. Duration : 1 h 33 min

  22. Bit rate : 32.7 Mb/s

  23. Width : 3 840 pixels

  24. Height : 1 634 pixels

  25. Display aspect ratio : 2.35:1

  26. Frame rate mode : Constant

  27. Frame rate : 23.976 (24000/1001/53354) FPS

  28. Color space : YUV

  29. Chroma subsampling : 4:2:0 (Type 2)

  30. Bit depth : 10 bits

  31. Bits/(Pixel*Frame) : 0.217

  32. Stream size : 21.3 GiB (89%)

  33. Title : HEVC, [email protected]@High, 24/1.001 fps @ 32654 kbps

  34. Writing library : x265 3.0_Au+4-dcbec33bfb0f:[Windows][GCC 8.2.1][64 bit] 10bit

  35. Encoding settings : cpuid=533541111039 / frame-threads=5 / numa-pools=44,44 / wpp / pmode / pme / no-psnr / no-ssim / log-level=2 / input-csp=1 / input-res=3840x1634 / interlace=0 / total-frames=134391 / level-idc=51 / high-tier=1 / uhd-bd=0 / ref=4 / no-allow-non-conformance / repeat-headers / annexb / no-aud / hrd / info / hash=0 / no-temporal-layers / no-open-gop / min-keyint=24 / keyint=240 / gop-lookahead=0 / bframes=8 / b-adapt=2 / b-pyramid / bframe-bias=0 / rc-lookahead=25 / lookahead-slices=0 / NTMzNTQ=uuDQuD2mJt9fsCf / scenecut=40 / radl=0 / no-splice / no-intra-refresh / ctu=64 / min-cu-size=8 / no-rect / no-amp / max-tu-size=32 / tu-inter-depth=3 / tu-intra-depth=3 / limit-tu=4 / rdoq-level=2 / dynamic-rd=0.00 / no-ssim-rd / signhide / no-tskip / nr-intra=0 / nr-inter=0 / no-constrained-intra / no-strong-intra-smoothing / max-merge=4 / limit-refs=1 / limit-modes / me=3 / subme=4 / merange=25 / temporal-mvp / weightp / weightb / no-analyze-src-pics / deblock=-3:-3 / no-sao / no-sao-non-deblock / rd=6 / no-early-skip / rskip / no-fast-intra / no-tskip-fast / no-cu-lossless / b-intra / no-splitrd-skip / rdpenalty=0 / psy-rd=2.00 / psy-rdoq=1.00 / no-rd-refine / no-lossless / cbqpoffs=0 / crqpoffs=0 / rc=crf / crf=20.0 / qcomp=0.65 / qpstep=4 / stats-write=0 / stats-read=0 / vbv-maxrate=160000 / vbv-bufsize=160000 / vbv-init=0.9 / crf-max=0.0 / crf-min=0.0 / ipratio=1.30 / pbratio=1.20 / aq-mode=3 / aq-strength=0.85 / cutree / zone-count=0 / no-strict-cbr / qg-size=32 / no-rc-grain / qpmax=69 / qpmin=0 / no-const-vbv / sar=1 / overscan=0 / videoformat=5 / range=0 / colorprim=9 / transfer=16 / colormatrix=9 / chromaloc=1 / chromaloc-top=2 / chromaloc-bottom=2 / display-window=0 / master-display=G(13250,34500)B(7500,3000)R(34000,16000)WP(15635,16450)L(10000000,10) / max-cll=479,433 / min-luma=0 / max-luma=1023 / log2-max-poc-lsb=8 / vui-timing-info / vui-hrd-info / slices=1 / no-opt-qp-pps / no-opt-ref-list-length-pps / no-multi-pass-opt-rps / scenecut-bias=0.05 / no-opt-cu-delta-qp / no-aq-motion / hdr / hdr-opt / no-dhdr10-opt / no-idr-recovery-sei / analysis-reuse-level=5 / scale-factor=0 / refine-intra=0 / refine-inter=0 / refine-mv=0 / refine-ctu-distortion=0 / no-limit-sao / ctu-info=0 / no-lowpass-dct / refine-analysis-type=0 / copy-pic=1 / max-ausize-factor=1.0 / no-dynamic-refine / no-single-sei / no-hevc-aq / qp-adaptation-range=1.00

  36. Language : English

  37. Default : Yes

  38. Forced : No

  39. Color range : Limited

  40. Color primaries : BT.2020

  41. Transfer characteristics : PQ

  42. Matrix coefficients : BT.2020 non-constant

  43. Mastering display color primaries : Display P3

  44. Mastering display luminance : min: 0.0010 cd/m2, max: 1000 cd/m2

  45. Maximum Content Light Level : 479 cd/m2

  46. Maximum Frame-Average Light Level : 433 cd/m2

  47. Audio #1

  48. ID : 2

  49. Format : DTS XLL

  50. Format/Info : Digital Theater Systems

  51. Commercial name : DTS-HD Master Audio

  52. Codec ID : A_DTS

  53. Duration : 1 h 33 min

  54. Bit rate mode : Variable

  55. Bit rate : 3 407 kb/s

  56. Channel(s) : 6 channels

  57. Channel layout : C L R Ls Rs LFE

  58. Sampling rate : 48.0 kHz

  59. Frame rate : 93.750 FPS (512 SPF)

  60. Bit depth : 24 bits

  61. Compression mode : Lossless

  62. Stream size : 2.22 GiB (9%)

  63. Title : English DTS-HD Master Audio 5.1 @ 3407 kbps

  64. Language : English

  65. Default : Yes

  66. Forced : No

  67. Audio #2

  68. ID : 3

  69. Format : DTS

  70. Format/Info : Digital Theater Systems

  71. Codec ID : A_DTS

  72. Duration : 1 h 33 min

  73. Bit rate mode : Constant

  74. Bit rate : 318 kb/s

  75. Channel(s) : 2 channels

  76. Channel layout : L R

  77. Sampling rate : 48.0 kHz

  78. Frame rate : 93.750 FPS (512 SPF)

  79. Bit depth : 24 bits

  80. Compression mode : Lossy

  81. Stream size : 212 MiB (1%)

  82. Title : English DTS 2.0 @ 318 kbps Commentary 1

  83. Language : English

  84. Default : No

  85. Forced : No

  86. Audio #3

  87. ID : 4

  88. Format : DTS

  89. Format/Info : Digital Theater Systems

  90. Codec ID : A_DTS

  91. Duration : 1 h 33 min

  92. Bit rate mode : Constant

  93. Bit rate : 318 kb/s

  94. Channel(s) : 2 channels

  95. Channel layout : L R

  96. Sampling rate : 48.0 kHz

  97. Frame rate : 93.750 FPS (512 SPF)

  98. Bit depth : 24 bits

  99. Compression mode : Lossy

  100. Stream size : 212 MiB (1%)

  101. Title : English DTS 2.0 @ 318 kbps Commentary 2

  102. Language : English

  103. Default : No

  104. Forced : No

  105. Text #1

  106. ID : 5

  107. Format : PGS

  108. Codec ID : S_HDMV/PGS

  109. Codec ID/Info : Picture based subtitle format used on BDs/HD-DVDs

  110. Duration : 1 h 30 min

  111. Bit rate : 16.4 kb/s

  112. Count of elements : 1216

  113. Stream size : 10.7 MiB (0%)

  114. Title : Eng/SUP

  115. Language : English

  116. Default : No

  117. Forced : No

  118. Text #2

  119. ID : 6

  120. Format : PGS

  121. Codec ID : S_HDMV/PGS

  122. Codec ID/Info : Picture based subtitle format used on BDs/HD-DVDs

  123. Duration : 1 h 28 min

  124. Bit rate : 13.5 kb/s

  125. Count of elements : 1562

  126. Stream size : 8.60 MiB (0%)

  127. Title : Chs/SUP 简体

  128. Language : Chinese

  129. Default : Yes

  130. Forced : No

  131. Text #3

  132. ID : 7

  133. Format : PGS

  134. Codec ID : S_HDMV/PGS

  135. Codec ID/Info : Picture based subtitle format used on BDs/HD-DVDs

  136. Duration : 1 h 28 min

  137. Bit rate : 14.0 kb/s

  138. Count of elements : 1562

  139. Stream size : 8.93 MiB (0%)

  140. Title : Cht/SUP 繁体

  141. Language : Chinese

  142. Default : No

  143. Forced : No

  144. Menu

  145. 00:00:00.000 : en:第 01 章

  146. 00:10:13.167 : en:第 02 章

  147. 00:20:49.208 : en:第 03 章

  148. 00:30:31.417 : en:第 04 章

  149. 00:38:40.833 : en:第 05 章

  150. 00:47:38.625 : en:第 06 章

  151. 00:56:32.708 : en:第 07 章

  152. 01:06:07.125 : en:第 08 章

  153. 01:16:08.583 : en:第 09 章

  154. 01:24:46.167 : en:第 10 章


复制代码



文件下载


除非特别注明,本文『第一滴血[共4部合集][简繁英字幕].Rambo.1-4.1982-2008.UHD.BluRay.2160p.DTS-HD.MA.TrueHD.Atmos.x265.10bit.HDR-ALT 91』来源于互联网机器人自动抓取,非本站原创。 浮游电影网不对本文拥有版权,如有侵犯,请联系邮箱:fuyouu#yandex.com[#换成@]投诉。我们会在15个工作日内删除。 但烦请转载时请标明出处:“本文转载于『浮游电影网』,原文地址:https://www.fuyouu.com/21603.html

评论吧骚年!

发表你的见解   

昵称*

E-mail*(建议输入,以便收到博主回复的提示邮件)

验证码*

您可以使用eMule或eMule Mod(Windows)、aMule(Win、Linux、Mac)等软件下载eD2k链接。。
eMule收藏集(.emulecollection)文件是您选中的所有链接的列表文件。eMule可以直接下载它们。
按住SHIFT键选择可以选中多个选择框。
可用文件名和大小选择器来选择文件。
文件名选择器帮您根据文件名称或后缀来选择文件。不分大小写。
符号使用:
和:空格( )、+
不包含:-
或:|
转义:一对英文引号("");
匹配开头:^
匹配结尾:$
例如:
选中所有名称中包含有“eMule”或“0.49c”字眼,但不包含有“exe”字眼的:emule|0.49c -exe
选中所有名称的开头是“eMule”,结尾是“0.49c”的:^emule 0.49c$
选中所有名称中带有“eMule 0.49c”的(必须是“eMule 0.49c”,中间没有别的字符,不能是“eMule fake 0.49c”),需要转义:"emule 0.49c"
大小选择器帮您根据文件大小选择文件。