当前位置: 首页 >> 欧美电影 >> 国王理查德[中英特效字幕].King.Richard.2021.BluRay.2160p.TrueHD.7.1.HDR.x265.10bit-CTRLHD 25.45GB >> 正文

国王理查德[中英特效字幕].King.Richard.2021.BluRay.2160p.TrueHD.7.1.HDR.x265.10bit-CTRLHD 25.45GB

2022年04月23日 00:23:21     电影发布:来源于网络     电影分类:欧美电影     评论(0)    

国王理查德[中英特效字幕].King.Richard.2021.BluRay.2160p.TrueHD.7.1.HDR.x265.10bit CTRLHD 25.45GB  欧美电影  第1张

◎译 名 国王理查德 / 王者世家(港) / 王者理查(台) / 王者理查德

◎片 名 King Richard

◎年 代 2021

◎产 地 美国

◎类 别 剧情 / 传记 / 运动

◎语 言 英语

◎上映日期 2021-09-02(特柳赖德电影节) / 2021-11-19(美国)

◎IMDb链接 https://www.imdb.com/title/tt9620288/

◎豆瓣评分 7.4/10 (19972人评价)

◎豆瓣链接 https://movie.douban.com/subject/30481476/

◎片 长 144分钟

◎导 演 雷纳尔多·马库斯·格林 Reinaldo Marcus Green (id:1340427)

◎编 剧 扎克·贝林 Zach Baylin (id:1432987)

◎演 员 威尔·史密斯 Will Smith (id:1027138)

黛米·辛格顿 Demi Singleton (id:1460164)

萨尼雅·西德尼 Saniyya Sidney (id:1366312)

安洁纽·艾莉丝 Aunjanue Ellis (id:1080808)

乔·博恩瑟 Jon Bernthal (id:1049679)

托尼·戈德温 Tony Goldwyn (id:1048151)

米凯拉·拉沙·巴塞洛缪 Mikayla Lashae Bartholomew (id:1464312)

达尼埃莱·劳森 Daniele Lawson (id:1464313)

莱拉·克劳福德 Layla Crawford (id:1326211)

埃里卡·林格 Erika Ringor (id:1464314)

诺亚·比恩 Noah Bean (id:1064348)

克雷格·泰特 Craig Tate (id:1464315)

乔赛亚·克罗斯 Josiah Cross (id:1464316)

小卡尔文·克劳塞尔 Calvin Clausell Jr. (id:1464318)

沃恩·W·希伯伦 (id:1464317)

小吉米·沃克 Jimmy Walker Jr. (id:1169446)

凯文·杜恩 Kevin Dunn (id:1049634)

布拉德·格林奎斯特 Brad Greenquist (id:1100354)

布兰顿·莫拉莱斯 Brandon Morales (id:1326005)

爱丽珂谢弗 Erica Shaffer (id:1141649)

安迪·比恩 Andy Bean (id:1383557)

朱迪思?查普曼 Judith Chapman (id:1067935)

切特·格里索姆 Chet Grissom (id:1209765)

乔纳森·贝莱 Jonathan Bray (id:1068693)

卡特里娜·贝恩 Katrina Begin (id:1197122)

里奇·索莫 Rich Sommer (id:1004710)

艾琳·库明斯 Erin Cummings (id:1313500)

汤姆·德格南 Tom Degnan (id:1317474)

弗吉尼亚·施奈德 Virginia Schneider (id:1411010)

瓦莱丽·戴维森 Valerie Davidson (id:1281875)

汉娜·巴尔福特 Hannah Barefoot (id:1375842)

梅尔·法尔 Mel Fair (id:1188089)

玛丽·帕斯科 Mary Pascoe (id:1214773)

古纳尔·怀特 Gunner Wright (id:1230796)

迪伦·麦克德莫特 Dylan McDermott (id:1040567)

苏西·阿布罗梅特 Susie Abromeit (id:1247903)

索菲亚·布伊 Sophia Bui (id:1342640)

约翰尼·曼斯巴赫 Johnny Mansbach (id:1243151)

凯蒂·麦克凯布 Katie McCabe (id:1428179)

丹·萨霍夫 Dan Sachoff (id:1396101)

列维·施瑞博尔 Liev Schreiber (id:1027151)

威尔·史密斯 Will Smith (id:1027138)

塞蕾娜·威廉姆斯 Serena Williams (id:1027474)

维纳斯·威廉姆斯 Venus Williams (id:1018348)

贾达·萍克·史密斯 Jada Pinkett Smith (id:1054154)

崔佛·怀特 Trevor White (id:1468415)

蒂姆·怀特 Tim White (id:1468414)

碧昂丝 Beyoncé (id:1113823)

克里斯·鲍尔斯 Kris Bowers (id:1411772)

罗伯特·艾斯威特 Robert Elswit (id:1048280)

帕梅拉·马丁 Pamela Martin (id:1314079)

威恩·托马斯 Wynn Thomas (id:1299163)

威廉·阿诺德 William Arnold (id:1468419)

雪伦·戴维斯 Sharen Davis (id:1033006)

◎简 介

该片剧本排2018年好莱坞“剧本黑名单”第二,讲述理查德·威廉姆斯的真实故事,这位精明务实、不屈不挠、没有任何网球背景的父亲培养 出了两个网球天才,她们后来成了超级巨星——维纳斯·威廉姆斯和塞雷娜·威廉姆斯(大威小威)。

理查德·威廉姆斯为女儿们的职业网球生涯起草了一份78页的计划,女孩们在康普顿破旧、杂草丛生的公共球场上学会了这项运动。据报道,在那之前,她们的父亲与一些不喜欢这项运动、不肯让位的年轻硬汉发生了争执。威廉姆斯姐妹后来成为了网球史上最伟大的女选手之二。

◎获奖情况 (共23项)

第94届奥斯卡金像奖 (2022)

最佳影片(提名)

└──威尔·史密斯 (id:1027138)

最佳男主角

└──威尔·史密斯 (id:1027138)

最佳女配角(提名)

└──安洁纽·艾莉丝 (id:1080808)

最佳原创剧本(提名)

└──扎克·贝林 (id:1432987)

最佳剪辑(提名)

└──帕梅拉·马丁 (id:1314079)

最佳原创歌曲(提名)

└──碧昂丝 (id:1113823)

第79届金球奖 (2022)

电影类 最佳剧情片(提名)

电影类 剧情片最佳男主角

└──威尔·史密斯 (id:1027138)

电影类 最佳女配角(提名)

└──安洁纽·艾莉丝 (id:1080808)

电影类 最佳原创歌曲(提名)

└──碧昂丝 (id:1113823)

第75届英国电影学院奖 (2022)

电影奖 最佳男主角

└──威尔·史密斯 (id:1027138)

电影奖 最佳女配角(提名)

└──安洁纽·艾莉丝 (id:1080808)

电影奖 最佳原创剧本(提名)

电影奖 最佳选角(提名)

第28届美国演员工会奖 (2022)

电影奖 最佳男主角

└──威尔·史密斯 (id:1027138)

电影奖 最佳群戏(提名)

第74届美国编剧工会奖 (2022)

电影奖 最佳原创剧本(提名)

└──扎克·贝林 (id:1432987)

第27届美国评论家选择电影奖 (2022)

最佳影片(提名)

最佳男主角

└──威尔·史密斯 (id:1027138)

最佳女配角(提名)

└──安洁纽·艾莉丝 (id:1080808)

最佳青少年演员(提名)

└──萨尼雅·西德尼 (id:1366312)

最佳原创剧本(提名)

└──扎克·贝林 (id:1432987)

最佳歌曲(提名)

  1. ##### MediaInfo ######

  2. General

  3. Unique ID : 112159886787116293226899911705840006908 (0x5461355D203D172E4E3DF0D8F33736FC)

  4. Complete name : King.Richard.2021.BluRay.2160p.TrueHD.7.1.HDR.x265.10bit-CHD.mkv

  5. Format : Matroska

  6. Format version : Version 4

  7. File size : 25.5 GiB

  8. Duration : 2 h 24 min

  9. Overall bit rate mode : Variable

  10. Overall bit rate : 25.2 Mb/s

  11. Movie name : King Richard

  12. Encoded date : UTC 2022-04-21 12:11:05

  13. Writing application : mkvmerge v63.0.0 ('Everything') 64-bit

  14. Writing library : libebml v1.4.2 + libmatroska v1.6.4

  15. Cover : Yes

  16. Attachments : cover.jpg / cover.jpg

  17. Video

  18. ID : 1

  19. Format : HEVC

  20. Format/Info : High Efficiency Video Coding

  21. Format profile : Main [email protected]@High

  22. HDR format : SMPTE ST 2086, HDR10 compatible

  23. Codec ID : V_MPEGH/ISO/HEVC

  24. Duration : 2 h 24 min

  25. Bit rate : 22.1 Mb/s

  26. Width : 3 840 pixels

  27. Height : 1 608 pixels

  28. Display aspect ratio : 2.40:1

  29. Frame rate mode : Constant

  30. Frame rate : 23.976 (24000/1001/53354) FPS

  31. Color space : YUV

  32. Chroma subsampling : 4:2:0 (Type 2)

  33. Bit depth : 10 bits

  34. Bits/(Pixel*Frame) : 0.149

  35. Stream size : 22.3 GiB (88%)

  36. Writing library : x265 3.5+2-g2b25c9ba0+87:[Windows][clang 12.0.1][64 bit] Kasumi 10bit

  37. Encoding settings : rc=crf / crf=15.0000 / qcomp=0.60 / qpstep=4 / stats-write=0 / stats-read=0 / no-lossless / no-cu-lossless / aq-mode=1 / aq-strength=1.00 / cbqpoffs=0 / crqpoffs=0 / ipratio=1.40 / pbratio=1.30 / psy-rd=3.00 / psy-rdoq=4.80 / deblock=0:0 / ref=6 / limit-refs=1 / no-limit-modes / bframes=14 / b-adapt=2 / bframe-bias=0 / b-pyramid / b-intra / weightp / weightb / min-keyint=23 / max-keyint=250 / rc-lookahead=75 / gop-lookahead=0 / NTMzNTQ=uuDQuD2mJt9fsCf / scenecut=40 / hist-scenecut=0 / radl=0 / max-cu-size=64 / min-cu-size=8 / me=3 / subme=7 / merange=64 / rdoq-level=2 / rd=4 / rdpenalty=2 / dynamic-rd=0.00 / no-rd-refine / ----- / cutree / no-sao / no-rect / no-amp / no-open-gop / wpp / no-pmode / no-pme / no-psnr / no-ssim / nr-intra=0 / nr-inter=0 / no-constrained-intra / no-strong-intra-smoothing / max-tu-size=32 / tu-inter-depth=1 / tu-intra-depth=1 / limit-tu=0 / qg-size=32 / qpmax=69 / qpmin=0 / ----- / cpuid=533541111039 / frame-threads=5 / numa-pools=64,64,0,0 / log-level=2 / input-csp=1 / input-res=3840x1608 / interlace=0 / level-idc=0 / high-tier=1 / uhd-bd=0 / no-allow-non-conformance / repeat-headers / no-aud / no-hrd / info / hash=0 / no-temporal-layers / lookahead-slices=8 / no-splice / no-intra-refresh / no-ssim-rd / signhide / no-tskip / max-merge=3 / temporal-mvp / no-frame-dup / no-hme / no-analyze-src-pics / no-sao-non-deblock / selective-sao=0 / early-skip / rskip / no-fast-intra / no-tskip-fast / no-splitrd-skip / zone-count=0 / no-strict-cbr / no-rc-grain / no-const-vbv / sar=0 / overscan=0 / videoformat=5 / range=0 / colorprim=9 / transfer=16 / colormatrix=9 / chromaloc=1 / chromaloc-top=2 / chromaloc-bottom=2 / display-window=0 / master-display=G(13250,34500)B(7500,3000)R(34000,16000)WP(15635,16450)L(10000000,1) / cll=279,38 / min-luma=0 / max-luma=1023 / log2-max-poc-lsb=8 / vui-timing-info / vui-hrd-info / slices=1 / no-opt-qp-pps / no-opt-ref-list-length-pps / no-multi-pass-opt-rps / scenecut-bias=0.05 / hist-threshold=0.03 / no-opt-cu-delta-qp / aq-motion / hdr10 / hdr10-opt / no-dhdr10-opt / no-idr-recovery-sei / analysis-reuse-level=0 / analysis-save-reuse-level=0 / analysis-load-reuse-level=0 / scale-factor=0 / refine-intra=0 / refine-inter=0 / refine-mv=1 / refine-ctu-distortion=0 / no-limit-sao / ctu-info=0 / no-lowpass-dct / refine-analysis-type=0 / copy-pic=1 / max-ausize-factor=1.0 / no-dynamic-refine / no-single-sei / no-hevc-aq / no-svt / no-field / qp-adaptation-range=1.00 / scenecut-aware-qp=0conformance-window-offsets / right=0 / bottom=0 / NTMzNTQ= / decoder-max-rate=0 / no-vbv-live-multi-pass

  38. Default : Yes

  39. Forced : No

  40. Color range : Limited

  41. Color primaries : BT.2020

  42. Transfer characteristics : PQ

  43. Matrix coefficients : BT.2020 non-constant

  44. Mastering display color primaries : Display P3

  45. Mastering display luminance : min: 0.0001 cd/m2, max: 1000 cd/m2

  46. Maximum Content Light Level : 279 cd/m2

  47. Maximum Frame-Average Light Level : 38 cd/m2

  48. Audio

  49. ID : 2

  50. ID in the original source medium : 4352 (0x1100)

  51. Format : MLP FBA 16-ch

  52. Format/Info : Meridian Lossless Packing FBA with 16-channel presentation

  53. Commercial name : Dolby TrueHD with Dolby Atmos

  54. Codec ID : A_TRUEHD

  55. Duration : 2 h 24 min

  56. Bit rate mode : Variable

  57. Bit rate : 2 838 kb/s

  58. Maximum bit rate : 3 645 kb/s

  59. Channel(s) : 8 channels

  60. Channel layout : L R C LFE Ls Rs Lb Rb

  61. Sampling rate : 48.0 kHz

  62. Frame rate : 1 200.000 FPS (40 SPF)

  63. Compression mode : Lossless

  64. Stream size : 2.87 GiB (11%)

  65. Language : English

  66. Default : Yes

  67. Forced : No

  68. Original source medium : Blu-ray

  69. Number of dynamic objects : 11

  70. Bed channel count : 1 channel

  71. Bed channel configuration : LFE

  72. Text #1

  73. ID : 3

  74. ID in the original source medium : 4768 (0x12A0)

  75. Format : PGS

  76. Muxing mode : zlib

  77. Codec ID : S_HDMV/PGS

  78. Codec ID/Info : Picture based subtitle format used on BDs/HD-DVDs

  79. Duration : 2 h 18 min

  80. Bit rate : 55.5 kb/s

  81. Count of elements : 4724

  82. Stream size : 55.1 MiB (0%)

  83. Language : English

  84. Default : Yes

  85. Forced : No

  86. Original source medium : Blu-ray

  87. Text #2

  88. ID : 4

  89. ID in the original source medium : 4770 (0x12A2)

  90. Format : PGS

  91. Muxing mode : zlib

  92. Codec ID : S_HDMV/PGS

  93. Codec ID/Info : Picture based subtitle format used on BDs/HD-DVDs

  94. Duration : 2 h 23 min

  95. Bit rate : 44.7 kb/s

  96. Count of elements : 4052

  97. Stream size : 45.9 MiB (0%)

  98. Title : 原生繁体

  99. Language : Chinese

  100. Default : Yes

  101. Forced : No

  102. Original source medium : Blu-ray

  103. Text #3

  104. ID : 5

  105. ID in the original source medium : 4771 (0x12A3)

  106. Format : PGS

  107. Muxing mode : zlib

  108. Codec ID : S_HDMV/PGS

  109. Codec ID/Info : Picture based subtitle format used on BDs/HD-DVDs

  110. Duration : 2 h 23 min

  111. Bit rate : 35.2 kb/s

  112. Count of elements : 4114

  113. Stream size : 36.2 MiB (0%)

  114. Title : 原生粤语

  115. Language : Chinese

  116. Default : Yes

  117. Forced : No

  118. Original source medium : Blu-ray

  119. Text #4

  120. ID : 6

  121. ID in the original source medium : 4777 (0x12A9)

  122. Format : PGS

  123. Muxing mode : zlib

  124. Codec ID : S_HDMV/PGS

  125. Codec ID/Info : Picture based subtitle format used on BDs/HD-DVDs

  126. Duration : 2 h 24 min

  127. Bit rate : 66.5 kb/s

  128. Count of elements : 5950

  129. Stream size : 68.6 MiB (0%)

  130. Title : 简英特效

  131. Language : Chinese

  132. Default : Yes

  133. Forced : No

  134. Original source medium : Blu-ray

  135. Text #5

  136. ID : 7

  137. ID in the original source medium : 4778 (0x12AA)

  138. Format : PGS

  139. Muxing mode : zlib

  140. Codec ID : S_HDMV/PGS

  141. Codec ID/Info : Picture based subtitle format used on BDs/HD-DVDs

  142. Duration : 2 h 24 min

  143. Bit rate : 67.4 kb/s

  144. Count of elements : 5950

  145. Stream size : 69.6 MiB (0%)

  146. Title : 繁英特效

  147. Language : Chinese

  148. Default : Yes

  149. Forced : No

  150. Original source medium : Blu-ray

  151. Text #6

  152. ID : 8

  153. ID in the original source medium : 4779 (0x12AB)

  154. Format : PGS

  155. Muxing mode : zlib

  156. Codec ID : S_HDMV/PGS

  157. Codec ID/Info : Picture based subtitle format used on BDs/HD-DVDs

  158. Duration : 2 h 24 min

  159. Bit rate : 50.0 kb/s

  160. Count of elements : 5950

  161. Stream size : 51.6 MiB (0%)

  162. Title : 简体特效

  163. Language : Chinese

  164. Default : Yes

  165. Forced : No

  166. Original source medium : Blu-ray

  167. Text #7

  168. ID : 9

  169. ID in the original source medium : 4780 (0x12AC)

  170. Format : PGS

  171. Muxing mode : zlib

  172. Codec ID : S_HDMV/PGS

  173. Codec ID/Info : Picture based subtitle format used on BDs/HD-DVDs

  174. Duration : 2 h 24 min

  175. Bit rate : 50.9 kb/s

  176. Count of elements : 5950

  177. Stream size : 52.5 MiB (0%)

  178. Title : 繁体特效

  179. Language : Chinese

  180. Default : Yes

  181. Forced : No

  182. Original source medium : Blu-ray

  183. Menu

  184. 00:00:00.000 : en:第 01 章

  185. 00:10:36.886 : en:第 02 章

  186. 00:20:04.369 : en:第 03 章

  187. 00:28:38.717 : en:第 04 章

  188. 00:40:24.296 : en:第 05 章

  189. 00:50:42.664 : en:第 06 章

  190. 00:58:19.913 : en:第 07 章

  191. 01:10:56.502 : en:第 08 章

  192. 01:19:14.666 : en:第 09 章

  193. 01:29:03.379 : en:第 10 章

  194. 01:40:26.186 : en:第 11 章

  195. 01:50:23.491 : en:第 12 章

  196. 01:59:11.185 : en:第 13 章

  197. 02:11:52.779 : en:第 14 章

  198. 02:17:17.604 : en:第 15 章



文件下载


除非特别注明,本文『国王理查德[中英特效字幕].King.Richard.2021.BluRay.2160p.TrueHD.7.1.HDR.x265.10bit-CTRLHD 25.45GB』来源于互联网机器人自动抓取,非本站原创。 浮游电影网不对本文拥有版权,如有侵犯,请联系邮箱:fuyouu#yandex.com[#换成@]投诉。我们会在15个工作日内删除。 但烦请转载时请标明出处:“本文转载于『浮游电影网』,原文地址:https://www.fuyouu.com/21601.html

评论吧骚年!

发表你的见解   

昵称*

E-mail*(建议输入,以便收到博主回复的提示邮件)

验证码*

您可以使用eMule或eMule Mod(Windows)、aMule(Win、Linux、Mac)等软件下载eD2k链接。。
eMule收藏集(.emulecollection)文件是您选中的所有链接的列表文件。eMule可以直接下载它们。
按住SHIFT键选择可以选中多个选择框。
可用文件名和大小选择器来选择文件。
文件名选择器帮您根据文件名称或后缀来选择文件。不分大小写。
符号使用:
和:空格( )、+
不包含:-
或:|
转义:一对英文引号("");
匹配开头:^
匹配结尾:$
例如:
选中所有名称中包含有“eMule”或“0.49c”字眼,但不包含有“exe”字眼的:emule|0.49c -exe
选中所有名称的开头是“eMule”,结尾是“0.49c”的:^emule 0.49c$
选中所有名称中带有“eMule 0.49c”的(必须是“eMule 0.49c”,中间没有别的字符,不能是“eMule fake 0.49c”),需要转义:"emule 0.49c"
大小选择器帮您根据文件大小选择文件。