当前位置: 首页 >> 欧美电影 >> 贪婪[简英字幕].Greed.2019.1080p.BluRay.DTS.x265-10bit-ENTHD 3.87GB >> 正文

贪婪[简英字幕].Greed.2019.1080p.BluRay.DTS.x265-10bit-ENTHD 3.87GB

2022年04月23日 00:22:32     电影发布:来源于网络     电影分类:欧美电影     评论(0)    

贪婪[简英字幕].Greed.2019.1080p.BluRay.DTS.x265 10bit ENTHD 3.87GB  欧美电影  第1张

◎译 名 贪婪

◎片 名 Greed

◎年 代 2019

◎产 地 英国

◎类 别 剧情 / 喜剧

◎语 言 英语

◎上映日期 2019-09-07(多伦多电影节) / 2020-02-21(英国)

◎IMDb链接 https://www.imdb.com/title/tt8972256/

◎豆瓣评分 5.9/10 (406人评价)

◎豆瓣链接 https://movie.douban.com/subject/30415216/

◎片 长 104分钟

◎导 演 迈克尔·温特伯顿 Michael Winterbottom (id:1002728)

◎编 剧 迈克尔·温特伯顿 Michael Winterbottom (id:1002728)

◎演 员 索菲·库克森 Sophie Cookson (id:1343282)

阿萨·巴特菲尔德 Asa Butterfield (id:1000220)

艾拉·菲舍尔 Isla Fisher (id:1041001)

雪莉·亨德森 Shirley Henderson (id:1036426)

斯蒂芬·弗雷 Stephen Fry (id:1049500)

史蒂夫·库根 Steve Coogan (id:1027820)

大卫·米切尔 David Mitchell (id:1116922)

莎拉·索蕾玛尼 Sarah Solemani (id:1317024)

波丽·坎普 Polly Kemp (id:1351671)

杰米·布莱克利 Jamie Blackley (id:1271408)

珀尔·麦基 Pearl Mackie (id:1357080)

恩佐·科伦蒂 Enzo Cilenti (id:1075239)

查理·库珀 Charlie Cooper (id:1377052)

阿西姆·乔杜里 Asim Chaudhry (id:1407787)

Shanina Shaik Shanina Shaik (id:1360929)

克里斯多夫·德·舒瓦西 Christophe de Choisy (id:1398244)

马汀·麦格 Martyn Mayger (id:1368245)

理查德·艾德礼 Richard Attlee (id:1056969)

Stephen Evans Stephen Evans (id:1038026)

萨莎·拜伦·科恩 Sacha Baron Cohen (id:1027161)

吉尔斯·纳特金斯 Giles Nuttgens (id:1293331)

◎简 介

萨沙·拜伦·科恩(Sacha Baron Cohen)即将主演新片《贪婪》(Greed),该片由英国导演迈克尔·温特鲍特姆(Michael Winterbottom)执导,是一部讽刺资本主义的喜剧片。

在片中,萨沙·拜伦·科恩将出演一个亿万富豪,他从事的是竞争激烈的零售业。跟着他,观众将走进超级富人的奢华世界,看到人们不愿接受的资本主义的另一面。

虽然目前还没有更多细节,但这部影片很可能采用萨沙·拜伦·科恩之前的《波拉特》、《布鲁诺》、《独裁者》那几部影片的风格。

《贪婪》由福克斯探照灯公司(Fox Searchlight)发行,英国的Revolution Films将承担拍摄制作。

  1. ##### MediaInfo ######

  2. General

  3. Unique ID : 45910048699700301823732012521460959680 (0x2289F429373D6D67C704FE12216D89C0)

  4. Complete name : Greed.2019.1080p.BluRay.DTS.x265-10bit-HDS.mkv

  5. Format : Matroska

  6. Format version : Version 4

  7. File size : 3.87 GiB

  8. Duration : 1 h 44 min

  9. Overall bit rate : 5 308 kb/s

  10. Movie name : Greed 2019 1080p BluRay DTS x265-10bit-HDS

  11. Encoded date : UTC 2022-04-20 15:06:22

  12. Writing application : mkvmerge v38.0.0 ('The Silent Type') 64-bit

  13. Writing library : libebml v1.3.9 + libmatroska v1.5.2

  14. Video

  15. ID : 1

  16. Format : HEVC

  17. Format/Info : High Efficiency Video Coding

  18. Format profile : Main [email protected]@High

  19. Codec ID : V_MPEGH/ISO/HEVC

  20. Duration : 1 h 44 min

  21. Bit rate : 4 803 kb/s

  22. Width : 1 920 pixels

  23. Height : 800 pixels

  24. Display aspect ratio : 2.40:1

  25. Frame rate mode : Constant

  26. Frame rate : 23.976 (24000/1001/53354) FPS

  27. Color space : YUV

  28. Chroma subsampling : 4:2:0

  29. Bit depth : 10 bits

  30. Bits/(Pixel*Frame) : 0.130

  31. Stream size : 3.50 GiB (90%)

  32. Title : [email protected]

  33. Writing library : x265 - H.265/HEVC codec

  34. Default : Yes

  35. Forced : No

  36. Audio

  37. ID : 2

  38. Format : AC-3

  39. Format/Info : Audio Coding 3

  40. Commercial name : Dolby Digital

  41. Codec ID : A_AC3

  42. Duration : 1 h 44 min

  43. Bit rate mode : Constant

  44. Bit rate : 448 kb/s

  45. Channel(s) : 6 channels

  46. Channel layout : L R C LFE Ls Rs

  47. Sampling rate : 48.0 kHz

  48. Frame rate : 31.250 FPS (1536 SPF)

  49. Compression mode : Lossy

  50. Stream size : 334 MiB (8%)

  51. Title : English

  52. Language : English

  53. Service kind : Complete Main

  54. Default : Yes

  55. Forced : No

  56. Text #1

  57. ID : 3

  58. Format : PGS

  59. Muxing mode : zlib

  60. Codec ID : S_HDMV/PGS

  61. Codec ID/Info : Picture based subtitle format used on BDs/HD-DVDs

  62. Duration : 1 h 39 min

  63. Bit rate : 55.4 kb/s

  64. Count of elements : 3406

  65. Stream size : 39.2 MiB (1%)

  66. Title : CHS

  67. Language : Chinese

  68. Default : Yes

  69. Forced : No

  70. Text #2

  71. ID : 4

  72. Format : PGS

  73. Muxing mode : zlib

  74. Codec ID : S_HDMV/PGS

  75. Codec ID/Info : Picture based subtitle format used on BDs/HD-DVDs

  76. Duration : 14 min 12 s

  77. Bit rate : 735 b/s

  78. Count of elements : 14

  79. Stream size : 76.6 KiB (0%)

  80. Title : ENG

  81. Language : English

  82. Default : No

  83. Forced : No

  84. Text #3

  85. ID : 5

  86. Format : PGS

  87. Muxing mode : zlib

  88. Codec ID : S_HDMV/PGS

  89. Codec ID/Info : Picture based subtitle format used on BDs/HD-NewHD

复制代码



文件下载


除非特别注明,本文『贪婪[简英字幕].Greed.2019.1080p.BluRay.DTS.x265-10bit-ENTHD 3.87GB』来源于互联网机器人自动抓取,非本站原创。 浮游电影网不对本文拥有版权,如有侵犯,请联系邮箱:fuyouu#yandex.com[#换成@]投诉。我们会在15个工作日内删除。 但烦请转载时请标明出处:“本文转载于『浮游电影网』,原文地址:https://www.fuyouu.com/21600.html

评论吧骚年!

发表你的见解   

昵称*

E-mail*(建议输入,以便收到博主回复的提示邮件)

验证码*

您可以使用eMule或eMule Mod(Windows)、aMule(Win、Linux、Mac)等软件下载eD2k链接。。
eMule收藏集(.emulecollection)文件是您选中的所有链接的列表文件。eMule可以直接下载它们。
按住SHIFT键选择可以选中多个选择框。
可用文件名和大小选择器来选择文件。
文件名选择器帮您根据文件名称或后缀来选择文件。不分大小写。
符号使用:
和:空格( )、+
不包含:-
或:|
转义:一对英文引号("");
匹配开头:^
匹配结尾:$
例如:
选中所有名称中包含有“eMule”或“0.49c”字眼,但不包含有“exe”字眼的:emule|0.49c -exe
选中所有名称的开头是“eMule”,结尾是“0.49c”的:^emule 0.49c$
选中所有名称中带有“eMule 0.49c”的(必须是“eMule 0.49c”,中间没有别的字符,不能是“eMule fake 0.49c”),需要转义:"emule 0.49c"
大小选择器帮您根据文件大小选择文件。