当前位置: 首页 >> 海外电影 >> 堕落街[简繁英字幕].Christiane.F.1981.BluRay.1080p.DTS-HD.MA.5.1.x265.10bit-ALT 14.54GB >> 正文

堕落街[简繁英字幕].Christiane.F.1981.BluRay.1080p.DTS-HD.MA.5.1.x265.10bit-ALT 14.54GB

2022年04月23日 00:21:37     电影发布:来源于网络     电影分类:海外电影     评论(0)    

堕落街[简繁英字幕].Christiane.F.1981.BluRay.1080p.DTS HD.MA.5.1.x265.10bit ALT 14.54GB  海外电影  第1张

◎译 名 堕落街 / 一个少女的自白 / We Children from Bahnhof Zoo

◎片 名 Christiane F. - Wir Kinder vom Bahnhof Zoo

◎年 代 1981

◎产 地 西德

◎类 别 剧情 / 传记

◎语 言 德语

◎上映日期 1981-04-02

◎IMDb链接 https://www.imdb.com/title/tt0082176/

◎豆瓣评分 7.8/10 (4381人评价)

◎豆瓣链接 https://movie.douban.com/subject/1304239/

◎片 长 138 分钟

◎导 演 乌利·埃德尔 Uli Edel (id:1000515)

◎编 剧 乌利·埃德尔 Uli Edel (id:1000515)

赫尔曼·魏格尔 Herman Weigel (id:1001480)

◎演 员 娜娅·布鲁克霍斯特 Natja Brunckhorst (id:1028030)

Eberhard Auriga Eberhard Auriga (id:1340837)

大卫·鲍伊 David Bowie (id:1013850)

Christiane Felscherinow Christiane Felscherinow (id:1082251)

贝尔恩德·艾辛格 Bernd Eichinger (id:1004512)

于尔根·柯尼帕 Jürgen Knieper (id:1034134)

于尔根·俞格斯 Jürgen Jürges (id:1038058)

Rainer Schaper Rainer Schaper (id:1296834)

科林·亚瑟 Colin Arthur (id:1277469)

◎简 介

本片背景为20世纪70年代的德国,讲述了一名14岁的少女从吸毒到卖淫,一步步走向堕落的故事。

未满14岁的克里斯蒂安娜(娜娅·布鲁克霍斯特 Natja Brunckhorst 饰)来自一个离异家庭,她和母亲妹妹一同生活在西柏林一家公寓里。当时的年轻人都到当地一家迪斯科“Sound”里玩,在朋友的陪同下,未成年的她也进入了这个迷幻世界。在这里,她认识了少年德特勒夫和他的朋友们。夜里,他们一群人常常一起流连街头,渐渐地,她爱上了德特勒夫,还尝试和他一起吸食迷幻剂。为了搞到买毒品的钱,德特勒夫会到一个叫“动物园”的地方物色对象进行卖淫。克里斯蒂安娜一开始不愿意德特勒夫做这种事,后来她自己也开始注射毒品,也开始到“动物园”里来。少女克里斯蒂安娜,一步步走向迷幻堕落的深渊……

本片根据少女克里斯蒂安娜·F的亲身经历改编。

  1. ##### MediaInfo ######

  2. General

  3. Unique ID : 298424661782889858087131594708566050654 (0xE0827FCD5964F0D6615FA332C2A2875E)

  4. Complete name : Christiane.F.1981.BluRay.1080p.DTS-HD.MA.5.1.x265.10bit-BeiTai.mkv

  5. Format : Matroska

  6. Format version : Version 4

  7. File size : 14.5 GiB

  8. Duration : 2 h 10 min

  9. Overall bit rate mode : Variable

  10. Overall bit rate : 15.9 Mb/s

  11. Encoded date : UTC 2022-04-21 12:32:26

  12. Writing application : mkvmerge v49.0.0 ('Sick Of Losing Soulmates') 64-bit

  13. Writing library : libebml v1.4.0 + libmatroska v1.6.1

  14. Video

  15. ID : 1

  16. Format : HEVC

  17. Format/Info : High Efficiency Video Coding

  18. Format profile : Main [email protected]@High

  19. Codec ID : V_MPEGH/ISO/HEVC

  20. Duration : 2 h 10 min

  21. Bit rate : 13.9 Mb/s

  22. Width : 1 920 pixels

  23. Height : 1 080 pixels

  24. Display aspect ratio : 16:9

  25. Frame rate mode : Constant

  26. Frame rate : 24.000 FPS

  27. Color space : YUV

  28. Chroma subsampling : 4:2:0

  29. Bit depth : 10 bits

  30. Bits/(Pixel*Frame) : 0.279

  31. Stream size : 12.7 GiB (87%)

  32. Title : HEVC, [email protected]@High, 24 fps @ 13897 kbps

  33. Writing library : x265 3.5+36-1f2c8da77:[Windows][GCC 11.2.0][64 bit] 10bit

  34. Encoding settings : cpuid=533541049583 / frame-threads=2 / numa-pools=4 / wpp / pmode / pme / no-psnr / no-ssim / log-level=2 / input-csp=1 / input-res=1920x1080 / interlace=0 / total-frames=188476 / level-idc=51 / high-tier=1 / uhd-bd=0 / ref=5 / no-allow-non-conformance / no-repeat-headers / annexb / no-aud / no-eob / no-eos / no-hrd / info / hash=0 / no-temporal-layers / open-gop / min-keyint=24 / keyint=240 / gop-lookahead=0 / bframes=6 / b-adapt=2 / b-pyramid / bframe-bias=0 / rc-lookahead=40 / lookahead-slices=0 / NTMzNTQ=uuDQuD2mJt9fsCf / scenecut=40 / no-hist-scenecut / radl=0 / no-splice / no-intra-refresh / ctu=32 / min-cu-size=8 / no-rect / no-amp / max-tu-size=32 / tu-inter-depth=3 / tu-intra-depth=3 / limit-tu=4 / rdoq-level=2 / dynamic-rd=0.00 / no-ssim-rd / signhide / no-tskip / nr-intra=0 / nr-inter=0 / no-constrained-intra / no-strong-intra-smoothing / max-merge=4 / limit-refs=1 / limit-modes / me=3 / subme=4 / merange=25 / temporal-mvp / no-frame-dup / no-hme / weightp / weightb / no-analyze-src-pics / deblock=-3:-3 / no-sao / no-sao-non-deblock / rd=6 / selective-sao=0 / no-early-skip / rskip / no-fast-intra / no-tskip-fast / no-cu-lossless / b-intra / no-splitrd-skip / rdpenalty=0 / psy-rd=2.00 / psy-rdoq=1.00 / no-rd-refine / no-lossless / cbqpoffs=0 / crqpoffs=0 / rc=crf / crf=17.0 / qcomp=0.65 / qpstep=4 / stats-write=0 / stats-read=0 / vbv-maxrate=80000 / vbv-bufsize=80000 / vbv-init=0.9 / min-vbv-fullness=50.0 / max-vbv-fullness=80.0 / crf-max=0.0 / crf-min=0.0 / ipratio=1.40 / pbratio=1.30 / aq-mode=2 / aq-strength=0.85 / cutree / zone-count=0 / no-strict-cbr / qg-size=32 / no-rc-grain / qpmax=69 / qpmin=0 / no-const-vbv / sar=1 / overscan=0 / videoformat=5 / range=0 / colorprim=1 / transfer=1 / colormatrix=1 / chromaloc=0 / display-window=0 / cll=0,0 / min-luma=0 / max-luma=1023 / log2-max-poc-lsb=8 / vui-timing-info / vui-hrd-info / slices=1 / no-opt-qp-pps / no-opt-ref-list-length-pps / no-multi-pass-opt-rps / scenecut-bias=0.05 / hist-threshold=0.03 / no-opt-cu-delta-qp / no-aq-motion / no-hdr10 / no-hdr10-opt / no-dhdr10-opt / no-idr-recovery-sei / analysis-reuse-level=0 / analysis-save-reuse-level=0 / analysis-load-reuse-level=0 / scale-factor=0 / refine-intra=0 / refine-inter=0 / refine-mv=1 / refine-ctu-distortion=0 / no-limit-sao / ctu-info=0 / no-lowpass-dct / refine-analysis-type=0 / copy-pic=1 / max-ausize-factor=1.0 / no-dynamic-refine / no-single-sei / no-hevc-aq / no-svt / no-field / qp-adaptation-range=1.00 / scenecut-aware-qp=0conformance-window-offsets / right=0 / bottom=0 / NTMzNTQ= / decoder-max-rate=0 / no-vbv-live-multi-pass

  35. Language : English

  36. Default : Yes

  37. Forced : No

  38. Color range : Limited

  39. Color primaries : BT.709

  40. Transfer characteristics : BT.709

  41. Matrix coefficients : BT.709

  42. Audio

  43. ID : 2

  44. Format : DTS XLL

  45. Format/Info : Digital Theater Systems

  46. Commercial name : DTS-HD Master Audio

  47. Codec ID : A_DTS

  48. Duration : 2 h 10 min

  49. Bit rate mode : Variable

  50. Bit rate : 1 976 kb/s

  51. Channel(s) : 6 channels

  52. Channel layout : C L R Ls Rs LFE

  53. Sampling rate : 48.0 kHz

  54. Frame rate : 93.750 FPS (512 SPF)

  55. Bit depth : 16 bits

  56. Compression mode : Lossless

  57. Stream size : 1.81 GiB (12%)

  58. Title : German DTS-HD Master Audio 5.1 @ 1976 kbps

  59. Language : German

  60. Default : Yes

  61. Forced : No

  62. Text #1

  63. ID : 3

  64. Format : PGS

  65. Codec ID : S_HDMV/PGS

  66. Codec ID/Info : Picture based subtitle format used on BDs/HD-DVDs

  67. Duration : 2 h 8 min

  68. Bit rate : 7 620 b/s

  69. Count of elements : 936

  70. Stream size : 7.01 MiB (0%)

  71. Title : Eng/SUP

  72. Language : English

  73. Default : No

  74. Forced : No

  75. Text #2

  76. ID : 4

  77. Format : PGS

  78. Codec ID : S_HDMV/PGS

  79. Codec ID/Info : Picture based subtitle format used on BDs/HD-DVDs

  80. Duration : 2 h 8 min

  81. Bit rate : 10.5 kb/s

  82. Count of elements : 930

  83. Stream size : 9.68 MiB (0%)

  84. Title : Chs/SUP 简体

  85. Language : Chinese

  86. Default : Yes

  87. Forced : No

  88. Text #3

  89. ID : 5

  90. Format : PGS

  91. Codec ID : S_HDMV/PGS

  92. Codec ID/Info : Picture based subtitle format used on BDs/HD-DVDs

  93. Duration : 2 h 8 min

  94. Bit rate : 10.8 kb/s

  95. Count of elements : 930

  96. Stream size : 9.90 MiB (0%)

  97. Title : Cht/SUP 繁体

  98. Language : Chinese

  99. Default : No

  100. Forced : No

  101. Menu

  102. 00:00:00.000 : en:第 01 章

  103. 00:10:58.250 : en:第 02 章

  104. 00:26:44.458 : en:第 03 章

  105. 00:34:59.667 : en:第 04 章

  106. 00:42:44.292 : en:第 05 章

  107. 00:55:50.875 : en:第 06 章

  108. 01:02:26.208 : en:第 07 章

  109. 01:12:51.042 : en:第 08 章

  110. 01:19:56.292 : en:第 09 章

  111. 01:31:27.417 : en:第 10 章

  112. 01:38:30.875 : en:第 11 章

  113. 01:54:46.917 : en:第 12 章

  114. 02:08:44.792 : en:第 13 章


复制代码



文件下载


除非特别注明,本文『堕落街[简繁英字幕].Christiane.F.1981.BluRay.1080p.DTS-HD.MA.5.1.x265.10bit-ALT 14.54GB』来源于互联网机器人自动抓取,非本站原创。 浮游电影网不对本文拥有版权,如有侵犯,请联系邮箱:fuyouu#yandex.com[#换成@]投诉。我们会在15个工作日内删除。 但烦请转载时请标明出处:“本文转载于『浮游电影网』,原文地址:https://www.fuyouu.com/21599.html

评论吧骚年!

发表你的见解   

昵称*

E-mail*(建议输入,以便收到博主回复的提示邮件)

验证码*

您可以使用eMule或eMule Mod(Windows)、aMule(Win、Linux、Mac)等软件下载eD2k链接。。
eMule收藏集(.emulecollection)文件是您选中的所有链接的列表文件。eMule可以直接下载它们。
按住SHIFT键选择可以选中多个选择框。
可用文件名和大小选择器来选择文件。
文件名选择器帮您根据文件名称或后缀来选择文件。不分大小写。
符号使用:
和:空格( )、+
不包含:-
或:|
转义:一对英文引号("");
匹配开头:^
匹配结尾:$
例如:
选中所有名称中包含有“eMule”或“0.49c”字眼,但不包含有“exe”字眼的:emule|0.49c -exe
选中所有名称的开头是“eMule”,结尾是“0.49c”的:^emule 0.49c$
选中所有名称中带有“eMule 0.49c”的(必须是“eMule 0.49c”,中间没有别的字符,不能是“eMule fake 0.49c”),需要转义:"emule 0.49c"
大小选择器帮您根据文件大小选择文件。