当前位置: 首页 >> 国产电影 >> 一眉先生[杜比视界版本][国语配音/中文字幕].Taoist.Priest.2021.2160p.WEB-DL.H265.DV.DDP.5.1.Atmos-HDBWEB 7.76GB >> 正文

一眉先生[杜比视界版本][国语配音/中文字幕].Taoist.Priest.2021.2160p.WEB-DL.H265.DV.DDP.5.1.Atmos-HDBWEB 7.76GB

2022年04月22日 10:17:07     电影发布:来源于网络     电影分类:国产电影     评论(0)    

一眉先生[杜比视界版本][国语配音/中文字幕].Taoist.Priest.2021.2160p.WEB DL.H265.DV.DDP.5.1.Atmos HDBWEB 7.76GB  国产电影  第1张

◎译 名 一眉先生 / Taoist Priest

◎年 代 2021

◎产 地 中国大陆 / 中国香港

◎类 别 动作 / 奇幻

◎语 言 汉语普通话 / 粤语

◎上映日期 2021-03-01(中国大陆)

◎IMDb链接 https://www.imdb.com/title//

◎豆瓣评分 3.5/10 (1550人评价)

◎豆瓣链接 https://movie.douban.com/subject/35206426/

◎导 演 刘观伟 Ricky Lau (id:1038428)

◎演 员 钱小豪 Siu-hou Chin (id:1005415)

徐少强 Norman Chu (id:1048469)

张迪财 Dicai Zhang (id:1371147)

安唯绫 Ariel Ahn (id:1324935)

庞景峰 Andrew Pong (id:1401079)

邵老五 Laowu Shao (id:1387307)

楼南光 Billy Lau (id:1289501)

洪天明 Timmy Hung Tin-Ming (id:1314773)

黄一山 Gabriel Wong (id:1315440)

杨波 Bo Yang (id:1447955)

◎简 介

英叔和豪哥两人是湄洲镇医局的药师,平日常为百姓们消灾除难。中元节时分,湄洲镇雾气弥漫僵尸横行,英叔豪哥带领弟子大战法师,保护了众人的安危。不料,回到医局后英叔豪哥就收到了贾府的求助,表示贾夫人新建的府上闹鬼,贾夫人也吓出了病来,湄洲镇的危机似乎愈演愈烈。英叔豪哥试图寻找破局之法,却屡屡陷入僵局,正邪之战即将打响……

  1. ##### MediaInfo ######

  2. General

  3. Complete name : 一眉先生.Taoist.Priest.2021.2160p.WEB-DL.H265.DV.DDP.5.1.Atmos-OurTV.mp4

  4. Format : MPEG-4

  5. Format profile : Base Media / Version 2

  6. Codec ID : mp42 (mp42/iso6/isom/msdh/dby1)

  7. File size : 7.76 GiB

  8. Duration : 1 h 18 min

  9. Overall bit rate : 14.2 Mb/s

  10. Encoded date : UTC 2022-04-21 09:15:15

  11. Tagged date : UTC 2022-04-21 09:15:15

  12. Video

  13. ID : 1

  14. Format : HEVC

  15. Format/Info : High Efficiency Video Coding

  16. Format profile : Main [email protected]@Main

  17. HDR format : Dolby Vision, Version 1.0, dvhe.05.06, BL+RPU

  18. Codec ID : dvhe

  19. Codec ID/Info : High Efficiency Video Coding with Dolby Vision

  20. Duration : 1 h 18 min

  21. Bit rate : 13.5 Mb/s

  22. Width : 3 840 pixels

  23. Height : 1 640 pixels

  24. Original height : 1 634 pixels

  25. Display aspect ratio : 2.35:1

  26. Frame rate mode : Constant

  27. Frame rate : 25.000 FPS

  28. Color space : YUV

  29. Chroma subsampling : 4:2:0

  30. Bit depth : 10 bits

  31. Bits/(Pixel*Frame) : 0.086

  32. Stream size : 7.37 GiB (95%)

  33. Default : Yes

  34. Alternate group : 1

  35. Encoded date : UTC 2022-04-21 09:15:15

  36. Tagged date : UTC 2022-04-21 09:15:15

  37. Color range : Full

  38. Codec configuration box : hvcC+dvcC

  39. Audio #1

  40. ID : 2

  41. Format : E-AC-3 JOC

  42. Format/Info : Enhanced AC-3 with Joint Object Coding

  43. Commercial name : Dolby Digital Plus with Dolby Atmos

  44. Codec ID : ac-3

  45. Duration : 1 h 18 min

  46. Bit rate mode : Constant

  47. Bit rate : 448 kb/s

  48. Channel(s) : 6 channels

  49. Channel layout : L R C LFE Ls Rs

  50. Sampling rate : 48.0 kHz

  51. Frame rate : 31.250 FPS (1536 SPF)

  52. Compression mode : Lossy

  53. Stream size : 251 MiB (3%)

  54. Language : Chinese

  55. Service kind : Complete Main

  56. Default : Yes

  57. Alternate group : 2

  58. Encoded date : UTC 2022-04-21 09:15:15

  59. Tagged date : UTC 2022-04-21 09:15:15

  60. Complexity index : Not present / 16

  61. Number of dynamic objects : 15

  62. Bed channel count : 1 channel

  63. Bed channel configuration : LFE

  64. Audio #2

  65. ID : 3

  66. Format : E-AC-3

  67. Format/Info : Enhanced AC-3

  68. Commercial name : Dolby Digital Plus

  69. Codec ID : ac-3

  70. Duration : 1 h 18 min

  71. Bit rate mode : Constant

  72. Bit rate : 256 kb/s

  73. Channel(s) : 2 channels

  74. Channel layout : L R

  75. Sampling rate : 48.0 kHz

  76. Frame rate : 31.250 FPS (1536 SPF)

  77. Compression mode : Lossy

  78. Stream size : 143 MiB (2%)

  79. Language : Chinese

  80. Service kind : Complete Main

  81. Default : No

  82. Alternate group : 2

  83. Encoded date : UTC 2022-04-21 09:15:15

  84. Tagged date : UTC 2022-04-21 09:15:15


复制代码



文件下载


除非特别注明,本文『一眉先生[杜比视界版本][国语配音/中文字幕].Taoist.Priest.2021.2160p.WEB-DL.H265.DV.DDP.5.1.Atmos-HDBWEB 7.76GB』来源于互联网机器人自动抓取,非本站原创。 浮游电影网不对本文拥有版权,如有侵犯,请联系邮箱:fuyouu#yandex.com[#换成@]投诉。我们会在15个工作日内删除。 但烦请转载时请标明出处:“本文转载于『浮游电影网』,原文地址:https://www.fuyouu.com/21577.html

评论吧骚年!

发表你的见解   

昵称*

E-mail*(建议输入,以便收到博主回复的提示邮件)

验证码*

您可以使用eMule或eMule Mod(Windows)、aMule(Win、Linux、Mac)等软件下载eD2k链接。。
eMule收藏集(.emulecollection)文件是您选中的所有链接的列表文件。eMule可以直接下载它们。
按住SHIFT键选择可以选中多个选择框。
可用文件名和大小选择器来选择文件。
文件名选择器帮您根据文件名称或后缀来选择文件。不分大小写。
符号使用:
和:空格( )、+
不包含:-
或:|
转义:一对英文引号("");
匹配开头:^
匹配结尾:$
例如:
选中所有名称中包含有“eMule”或“0.49c”字眼,但不包含有“exe”字眼的:emule|0.49c -exe
选中所有名称的开头是“eMule”,结尾是“0.49c”的:^emule 0.49c$
选中所有名称中带有“eMule 0.49c”的(必须是“eMule 0.49c”,中间没有别的字符,不能是“eMule fake 0.49c”),需要转义:"emule 0.49c"
大小选择器帮您根据文件大小选择文件。