当前位置: 首页 >> 港台电影 >> 扎职[国粤英多音轨/简繁英字幕].Triad.2012.BluRay.1080p.2Audio.DTS-HD.MA.7.1.x265.10bit-ALT 5.91GB >> 正文

扎职[国粤英多音轨/简繁英字幕].Triad.2012.BluRay.1080p.2Audio.DTS-HD.MA.7.1.x265.10bit-ALT 5.91GB

2022年04月22日 10:13:44     电影发布:来源于网络     电影分类:港台电影     评论(0)    

扎职[国粤英多音轨/简繁英字幕].Triad.2012.BluRay.1080p.2Audio.DTS HD.MA.7.1.x265.10bit ALT 5.91GB  港台电影  第1张

◎译 名 扎职 / Triad

◎片 名 紮職

◎年 代 2012

◎产 地 中国香港

◎类 别 犯罪

◎语 言 粤语

◎上映日期 2012-11-15(中国香港)

◎IMDb链接 https://www.imdb.com/title/tt2354525/

◎豆瓣评分 6.4/10 (14606人评价)

◎豆瓣链接 https://movie.douban.com/subject/10561880/

◎片 长 90分钟

◎导 演 陈翊恒 Daniel Chan Yee-Heng (id:1323561)

◎编 剧 谭广源 Frankie Tam (id:1328638)

凌浩然 Ho Yin Ling (id:1365640)

严嘉仪 Yim Ka Yee (id:1405545)

李思臻 Kelvin Lee (id:1353740)

◎演 员 陈伟霆 William Chan (id:1275970)

卫诗雅 Michelle Wai (id:1313357)

曾国祥 Derek Tsang (id:1274534)

温碧霞 Irene Wan (id:1023681)

谭耀文 Patrick Tam (id:1033280)

陈惠敏 Wai-Man Chan (id:1012699)

姚文基 Man-kei Yiu (id:1435360)

九纹龙 Mr. Nine (id:1419154)

叶景文 King-Man Yip (id:1397259)

徐伟栋 Edward Chui (id:1336685)

利雅博 Albert Lee (id:1326683)

杨受成 Albert Yeung (id:1313455)

伍乐城 Ronald Ng (id:1293116)

黄智亨 Henri Wong Chi-Hang (id:1322383)

黄伟辉 Wong Wai-Fai (id:1275163)

◎简 介

1997年,用功读书且孝敬寡母的阿霆(陈伟霆 饰)和早早便混社会的阿祥(曾国祥 饰)、阿栋(徐伟栋 饰)是自幼长大的好朋友。因做小生意的霆母被人欺负,阿祥等人叫来大哥耀文(谭耀文 饰)相助。文哥是黑道响当当的人物,当年曾一夜之间横扫油麻地,但却甘心经营一家小水果摊。见识了文哥的义气,阿霆决心拜入其门下,希望早日赚大钱孝敬父母。经过多年的打拼历练,阿霆逐渐成长为足以独当一面的少壮派人物。他代大老板王波(卢海鹏 饰)收账,由此与富家千金Michelle (诗雅 饰)相识相恋。

风光无限的阿霆惹到同门前辈火爆明(林利 饰),不仅遭到残酷毒打,连恋情也出现转机。这一事件促使他的内心世界以及黑道格局发生天翻地覆的变化……

  1. ##### MediaInfo ######

  2. General

  3. Unique ID : 69865253046108284956598361314259218030 (0x348F8EEC2EE42241B42FF8A6DEB1AE6E)

  4. Complete name : Triad.2012.BluRay.1080p.2Audio.DTS-HD.MA.7.1.x265.10bit-BeiTai.mkv

  5. Format : Matroska

  6. Format version : Version 4

  7. File size : 5.91 GiB

  8. Duration : 1 h 30 min

  9. Overall bit rate mode : Variable

  10. Overall bit rate : 9 378 kb/s

  11. Encoded date : UTC 2022-04-21 09:01:08

  12. Writing application : mkvmerge v49.0.0 ('Sick Of Losing Soulmates') 64-bit

  13. Writing library : libebml v1.4.0 + libmatroska v1.6.1

  14. Video

  15. ID : 1

  16. Format : HEVC

  17. Format/Info : High Efficiency Video Coding

  18. Format profile : Main [email protected]@High

  19. Codec ID : V_MPEGH/ISO/HEVC

  20. Duration : 1 h 30 min

  21. Bit rate : 5 438 kb/s

  22. Width : 1 920 pixels

  23. Height : 858 pixels

  24. Display aspect ratio : 2.25:1

  25. Frame rate mode : Constant

  26. Frame rate : 24.000 FPS

  27. Color space : YUV

  28. Chroma subsampling : 4:2:0

  29. Bit depth : 10 bits

  30. Bits/(Pixel*Frame) : 0.138

  31. Stream size : 3.43 GiB (58%)

  32. Title : HEVC, [email protected]@High, 24 fps @ 5438 kbps

  33. Writing library : x265 3.5+36-1f2c8da77:[Windows][GCC 11.2.0][64 bit] 10bit

  34. Encoding settings : cpuid=533541111039 / frame-threads=4 / numa-pools=16 / wpp / pmode / pme / no-psnr / no-ssim / log-level=2 / input-csp=1 / input-res=1920x858 / interlace=0 / total-frames=129996 / level-idc=51 / high-tier=1 / uhd-bd=0 / ref=5 / no-allow-non-conformance / no-repeat-headers / annexb / no-aud / no-eob / no-eos / no-hrd / info / hash=0 / no-temporal-layers / open-gop / min-keyint=24 / keyint=240 / gop-lookahead=0 / bframes=6 / b-adapt=2 / b-pyramid / bframe-bias=0 / rc-lookahead=40 / lookahead-slices=0 / NTMzNTQ=uuDQuD2mJt9fsCf / scenecut=40 / no-hist-scenecut / radl=0 / no-splice / no-intra-refresh / ctu=32 / min-cu-size=8 / no-rect / no-amp / max-tu-size=32 / tu-inter-depth=3 / tu-intra-depth=3 / limit-tu=4 / rdoq-level=2 / dynamic-rd=0.00 / no-ssim-rd / signhide / no-tskip / nr-intra=0 / nr-inter=0 / no-constrained-intra / no-strong-intra-smoothing / max-merge=4 / limit-refs=1 / limit-modes / me=3 / subme=4 / merange=25 / temporal-mvp / no-frame-dup / no-hme / weightp / weightb / no-analyze-src-pics / deblock=-3:-3 / no-sao / no-sao-non-deblock / rd=6 / selective-sao=0 / no-early-skip / rskip / no-fast-intra / no-tskip-fast / no-cu-lossless / b-intra / no-splitrd-skip / rdpenalty=0 / psy-rd=2.00 / psy-rdoq=1.00 / no-rd-refine / no-lossless / cbqpoffs=0 / crqpoffs=0 / rc=crf / crf=17.0 / qcomp=0.65 / qpstep=4 / stats-write=0 / stats-read=0 / vbv-maxrate=80000 / vbv-bufsize=80000 / vbv-init=0.9 / min-vbv-fullness=50.0 / max-vbv-fullness=80.0 / crf-max=0.0 / crf-min=0.0 / ipratio=1.40 / pbratio=1.30 / aq-mode=2 / aq-strength=0.85 / cutree / zone-count=0 / no-strict-cbr / qg-size=32 / no-rc-grain / qpmax=69 / qpmin=0 / no-const-vbv / sar=1 / overscan=0 / videoformat=5 / range=0 / colorprim=1 / transfer=1 / colormatrix=1 / chromaloc=0 / display-window=0 / cll=0,0 / min-luma=0 / max-luma=1023 / log2-max-poc-lsb=8 / vui-timing-info / vui-hrd-info / slices=1 / no-opt-qp-pps / no-opt-ref-list-length-pps / no-multi-pass-opt-rps / scenecut-bias=0.05 / hist-threshold=0.03 / no-opt-cu-delta-qp / no-aq-motion / no-hdr10 / no-hdr10-opt / no-dhdr10-opt / no-idr-recovery-sei / analysis-reuse-level=0 / analysis-save-reuse-level=0 / analysis-load-reuse-level=0 / scale-factor=0 / refine-intra=0 / refine-inter=0 / refine-mv=1 / refine-ctu-distortion=0 / no-limit-sao / ctu-info=0 / no-lowpass-dct / refine-analysis-type=0 / copy-pic=1 / max-ausize-factor=1.0 / no-dynamic-refine / no-single-sei / no-hevc-aq / no-svt / no-field / qp-adaptation-range=1.00 / scenecut-aware-qp=0conformance-window-offsets / right=0 / bottom=0 / NTMzNTQ= / decoder-max-rate=0 / no-vbv-live-multi-pass

  35. Language : English

  36. Default : Yes

  37. Forced : No

  38. Color range : Limited

  39. Color primaries : BT.709

  40. Transfer characteristics : BT.709

  41. Matrix coefficients : BT.709

  42. Audio #1

  43. ID : 2

  44. Format : DTS XLL

  45. Format/Info : Digital Theater Systems

  46. Commercial name : DTS-HD Master Audio

  47. Codec ID : A_DTS

  48. Duration : 1 h 30 min

  49. Bit rate mode : Variable

  50. Bit rate : 3 049 kb/s

  51. Channel(s) : 8 channels

  52. Channel layout : C L R LFE Lb Rb Lss Rss

  53. Sampling rate : 48.0 kHz

  54. Frame rate : 93.750 FPS (512 SPF)

  55. Bit depth : 16 bits

  56. Compression mode : Lossless

  57. Stream size : 1.92 GiB (33%)

  58. Title : Cantonese DTS-HD Master Audio 7.1 @ 3049 kbps

  59. Language : Chinese

  60. Default : Yes

  61. Forced : No

  62. Audio #2

  63. ID : 3

  64. Format : E-AC-3

  65. Format/Info : Enhanced AC-3

  66. Commercial name : Dolby Digital Plus

  67. Format profile : Blu-ray Disc

  68. Codec ID : A_EAC3

  69. Duration : 1 h 30 min

  70. Bit rate mode : Constant

  71. Bit rate : 768 kb/s

  72. Channel(s) : 8 channels

  73. Channel layout : L R C LFE Ls Rs Lb Rb

  74. Sampling rate : 48.0 kHz

  75. Frame rate : 31.250 FPS (1536 SPF)

  76. Compression mode : Lossy

  77. Stream size : 496 MiB (8%)

  78. Title : Mandarin Dolby Digital Plus Audio 7.1 @ 768 kbps

  79. Language : Chinese

  80. Service kind : Complete Main

  81. Default : No

  82. Forced : No

  83. Text #1

  84. ID : 4

  85. Format : PGS

  86. Codec ID : S_HDMV/PGS

  87. Codec ID/Info : Picture based subtitle format used on BDs/HD-DVDs

  88. Duration : 1 h 26 min

  89. Bit rate : 40.2 kb/s

  90. Count of elements : 2781

  91. Stream size : 24.8 MiB (0%)

  92. Title : Cht/SUP 原盘繁体

  93. Language : Chinese

  94. Default : No

  95. Forced : No

  96. Text #2

  97. ID : 5

  98. Format : PGS

  99. Codec ID : S_HDMV/PGS

  100. Codec ID/Info : Picture based subtitle format used on BDs/HD-DVDs

  101. Duration : 1 h 26 min

  102. Bit rate : 39.3 kb/s

  103. Count of elements : 2781

  104. Stream size : 24.2 MiB (0%)

  105. Title : Chs/SUP 原盘简体

  106. Language : Chinese

  107. Default : Yes

  108. Forced : No

  109. Text #3

  110. ID : 6

  111. Format : PGS

  112. Codec ID : S_HDMV/PGS

  113. Codec ID/Info : Picture based subtitle format used on BDs/HD-DVDs

  114. Duration : 1 h 26 min

  115. Bit rate : 45.6 kb/s

  116. Count of elements : 2782

  117. Stream size : 28.1 MiB (0%)

  118. Title : Eng/SUP

  119. Language : English

  120. Default : No

  121. Forced : No

  122. Menu

  123. 00:00:00.000 : en:第 01 章

  124. 00:06:26.792 : en:第 02 章

  125. 00:14:12.125 : en:第 03 章

  126. 00:19:20.417 : en:第 04 章

  127. 00:24:52.042 : en:第 05 章

  128. 00:33:56.375 : en:第 06 章

  129. 00:41:06.458 : en:第 07 章

  130. 00:51:34.625 : en:第 08 章

  131. 00:59:22.833 : en:第 09 章

  132. 01:08:38.000 : en:第 10 章

  133. 01:15:44.583 : en:第 11 章

  134. 01:22:29.917 : en:第 12 章


复制代码





文件下载


除非特别注明,本文『扎职[国粤英多音轨/简繁英字幕].Triad.2012.BluRay.1080p.2Audio.DTS-HD.MA.7.1.x265.10bit-ALT 5.91GB』来源于互联网机器人自动抓取,非本站原创。 浮游电影网不对本文拥有版权,如有侵犯,请联系邮箱:fuyouu#yandex.com[#换成@]投诉。我们会在15个工作日内删除。 但烦请转载时请标明出处:“本文转载于『浮游电影网』,原文地址:https://www.fuyouu.com/21575.html

评论吧骚年!

发表你的见解   

昵称*

E-mail*(建议输入,以便收到博主回复的提示邮件)

验证码*

您可以使用eMule或eMule Mod(Windows)、aMule(Win、Linux、Mac)等软件下载eD2k链接。。
eMule收藏集(.emulecollection)文件是您选中的所有链接的列表文件。eMule可以直接下载它们。
按住SHIFT键选择可以选中多个选择框。
可用文件名和大小选择器来选择文件。
文件名选择器帮您根据文件名称或后缀来选择文件。不分大小写。
符号使用:
和:空格( )、+
不包含:-
或:|
转义:一对英文引号("");
匹配开头:^
匹配结尾:$
例如:
选中所有名称中包含有“eMule”或“0.49c”字眼,但不包含有“exe”字眼的:emule|0.49c -exe
选中所有名称的开头是“eMule”,结尾是“0.49c”的:^emule 0.49c$
选中所有名称中带有“eMule 0.49c”的(必须是“eMule 0.49c”,中间没有别的字符,不能是“eMule fake 0.49c”),需要转义:"emule 0.49c"
大小选择器帮您根据文件大小选择文件。