当前位置: 首页 >> 港台电影 >> 机动部队[共6部合集][国粤英多音轨/简繁英字幕].PTU.2003-2009.BluRay.1080p.2Audio.DTS-HD.MA.7.1.x265.10bit-ALT 53.25GB >> 正文

机动部队[共6部合集][国粤英多音轨/简繁英字幕].PTU.2003-2009.BluRay.1080p.2Audio.DTS-HD.MA.7.1.x265.10bit-ALT 53.25GB

2022年04月22日 10:08:06     电影发布:来源于网络     电影分类:港台电影     评论(0)    

机动部队[共6部合集][国粤英多音轨/简繁英字幕].PTU.2003 2009.BluRay.1080p.2Audio.DTS HD.MA.7.1.x265.10bit ALT 53.25GB  港台电影  第1张

◎译 名 机动部队 / PTU: Into the Perilous Night / PTU - Police Tactical Unit

◎片 名 PTU

◎年 代 2003

◎产 地 中国香港

◎类 别 剧情 / 犯罪

◎语 言 粤语

◎上映日期 2003-04-17(中国香港)

◎IMDb链接 https://www.imdb.com/title/tt0250638/

◎豆瓣评分 8.1/10 (84956人评价)

◎豆瓣链接 https://movie.douban.com/subject/1302434/

◎片 长 88分钟

◎导 演 杜琪峰 Johnnie To (id:1160186)

◎编 剧 欧健儿 Kin-Yee Au (id:1303521)

游乃海 Nai-Hoi Yau (id:1161310)

◎演 员 任达华 Simon Yam (id:1031194)

邵美琪 Maggie Siu (id:1152997)

林雪 Suet Lam (id:1274279)

黄卓玲 Ruby Wong (id:1301203)

黄浩然 Raymond Wong Ho-Yin (id:1051740)

高雄 Eddy Ko (id:1313798)

卢海鹏 Hoi-Pang Lo (id:1038772)

张志平 Chi Ping Chang (id:1364462)

赵珉和 Tamiyasu Cho (id:1275802)

赵志诚 Chiu Chi Shing (id:1326360)

张满源 Kenneth Cheung (id:1342531)

元宝 Bo Yuen (id:1346065)

黄志伟 Chi Wai Wong (id:1308890)

利沙华 Courtney Wu (id:1034049)

郑保瑞 Pou-Soi Cheang (id:1274240)

王天林 Tian-lin Wang (id:1041074)

丁云山 Wan San Ding (id:1388181)

杜琪峰 Johnnie To (id:1160186)

钟志荣 Chi Wing Chung (id:1280782)

郑兆强 Siu-keung Cheng (id:1280597)

罗永昌 Wing-cheong Law (id:1274489)

叶淑华 Sukie Yip (id:1305548)

罗永昌 Wing-cheong Law (id:1274489)

马文现 Stephen Ma (id:1290573)

黄华和 Wah Wo Wong (id:1355706)

◎简 介

反黑组警长肥沙(林雪 饰),不慎丢失手枪。这件事非同小可,如果手枪被匪徒用去行凶,肥沙将大祸临头。PTU(警察机动部队)警官何文展(任达华 饰)出于义气,答应一定会在天亮之前寻回手枪,带几名手下开展了寻枪行动。另一方面,却在横生枝节:警员Kat(邵美琪 饰)死守纪律,坚持要将此事汇报上级处理;而在同一晚,CID的Madam张(黄卓玲 饰)在接手一单黑社会谋杀案时,怀疑肥沙与黑社会有染,由此与PTU发生意见分歧。人与人,部门与部门之间的矛盾、争斗和角力,在夜幕中徐徐拉开。而第二天清早,揭晓的真相,原来都在他们的意料之外……

◎获奖情况 (共28项)

第40届台北金马影展 (2003)

金马奖 最佳剧情片(提名)

金马奖 最佳导演(提名)

└──杜琪峰 (id:1160186)

金马奖 最佳男主角(提名)

└──任达华 (id:1031194)

金马奖 最佳男配角(提名)

└──林雪 (id:1274279)

金马奖 最佳原著剧本

金马奖 最佳摄影(提名)

└──郑兆强 (id:1280597)

金马奖 最佳造型设计(提名)

└──叶淑华 (id:1305548)

金马奖 最佳原创配乐(提名)

└──钟志荣 (id:1280782)

金马奖 最佳剪辑(提名)

└──罗永昌 (id:1274489)

金马奖 最佳音效(提名)

└──卓保怡 (id:1280497)

金马奖 最佳视觉效果(提名)

└──马文现 (id:1290573)

第23届香港电影金像奖 (2004)

最佳电影(提名)

最佳导演

└──杜琪峰 (id:1160186)

最佳编剧(提名)

最佳男主角(提名)

└──任达华 (id:1031194)

最佳女配角(提名)

└──邵美琪 (id:1152997)

最佳摄影(提名)

└──郑兆强 (id:1280597)

最佳剪接(提名)

└──罗永昌 (id:1274489)

最佳原创电影音乐(提名)

└──钟志荣 (id:1280782)

最佳音响效果(提名)

└──卓保怡 (id:1280497)

最佳视觉效果(提名)

└──马文现 (id:1290573)

第7届中国长春电影节 (2005)

金鹿奖 最佳华语故事片(提名)

金鹿奖 最佳导演(提名)

└──杜琪峰 (id:1160186)

第4届华语电影传媒大奖 (2004)

最佳电影(提名)

最佳导演

└──杜琪峰 (id:1160186)

最佳男主角(提名)

└──任达华 (id:1031194)

最佳女配角(提名)

└──邵美琪 (id:1152997)

最佳编剧(提名)

  1. 合集文件列表:

  2. 1.PTU.2003.BluRay.1080p.2Audio.DTS-HD.MA.7.1.x265.10bit-ALT.mkv 11.22GB

  3. 2.Tactica.Unit.Comrades.In.Arms.2008.BluRay.1080p.2Audio.DTS-HD.MA.7.1.x265.10bit-ALT.mkv 7.37GB

  4. 3.Tactical.Unit.Human.Nature.2008.BluRay.1080p.2Audio.DTS-HD.MA.7.1.x265.10bit-ALT.mkv 8.26GB

  5. 4.Tactical.Unit.No.Way.Out.2008.BluRay.1080p.2Audio.DTS-HD.MA.7.1.x265.10bit-ALT.mkv 7.89GB

  6. 5.Tactical.Unit.Partners.2009.BluRay.1080p.2Audio.DTS-HD.MA.7.1.x265.10bit-ALT.mkv 7.67GB

  7. 6.Tactical.Unit.The.Code.2008.BluRay.1080p.2Audio.DTS-HD.MA.7.1.x265.10bit-ALT.mkv 10.84GB


复制代码

  1. ##### MediaInfo ######

  2. General

  3. Unique ID : 98805813526835986588696095319647252037 (0x4A554EB7FF806B4C02CF9B795252EE45)

  4. Complete name : PTU.2003.BluRay.1080p.2Audio.DTS-HD.MA.7.1.x265.10bit-BeiTai.mkv

  5. Format : Matroska

  6. Format version : Version 4

  7. File size : 11.2 GiB

  8. Duration : 1 h 27 min

  9. Overall bit rate mode : Variable

  10. Overall bit rate : 18.3 Mb/s

  11. Encoded date : UTC 2020-04-22 06:58:17

  12. Writing application : mkvmerge v45.0.0 ('Heaven in Pennies') 64-bit

  13. Writing library : libebml v1.3.10 + libmatroska v1.5.2

  14. Video

  15. ID : 1

  16. Format : HEVC

  17. Format/Info : High Efficiency Video Coding

  18. Format profile : Main [email protected]@High

  19. Codec ID : V_MPEGH/ISO/HEVC

  20. Duration : 1 h 27 min

  21. Bit rate : 15.1 Mb/s

  22. Width : 1 920 pixels

  23. Height : 816 pixels

  24. Display aspect ratio : 2.35:1

  25. Frame rate mode : Constant

  26. Frame rate : 24.000 FPS

  27. Color space : YUV

  28. Chroma subsampling : 4:2:0

  29. Bit depth : 10 bits

  30. Bits/(Pixel*Frame) : 0.402

  31. Stream size : 9.28 GiB (83%)

  32. Title : HEVC, [email protected]@High, 24/1.001 fps @ 15116 kbps

  33. Writing library : x265 3.3+1-g396395b2b:[Windows][GCC 9.2.0][64 bit] 10bit

  34. Encoding settings : cpuid=533541111039 / frame-threads=4 / numa-pools=16 / wpp / pmode / pme / no-psnr / no-ssim / log-level=2 / input-csp=1 / input-res=1920x816 / interlace=0 / total-frames=126553 / level-idc=51 / high-tier=1 / uhd-bd=0 / ref=5 / no-allow-non-conformance / no-repeat-headers / annexb / no-aud / no-hrd / info / hash=0 / no-temporal-layers / open-gop / min-keyint=24 / keyint=240 / gop-lookahead=0 / bframes=6 / b-adapt=2 / b-pyramid / bframe-bias=0 / rc-lookahead=40 / lookahead-slices=0 / NTMzNTQ=uuDQuD2mJt9fsCf / scenecut=40 / hist-scenecut=0 / radl=0 / no-splice / no-intra-refresh / ctu=32 / min-cu-size=8 / no-rect / no-amp / max-tu-size=32 / tu-inter-depth=3 / tu-intra-depth=3 / limit-tu=4 / rdoq-level=2 / dynamic-rd=0.00 / no-ssim-rd / signhide / no-tskip / nr-intra=0 / nr-inter=0 / no-constrained-intra / no-strong-intra-smoothing / max-merge=4 / limit-refs=1 / limit-modes / me=3 / subme=4 / merange=25 / temporal-mvp / no-frame-dup / no-hme / weightp / weightb / no-analyze-src-pics / deblock=-3:-3 / no-sao / no-sao-non-deblock / rd=6 / selective-sao=0 / no-early-skip / rskip / no-fast-intra / no-tskip-fast / no-cu-lossless / b-intra / no-splitrd-skip / rdpenalty=0 / psy-rd=2.00 / psy-rdoq=1.00 / no-rd-refine / no-lossless / cbqpoffs=0 / crqpoffs=0 / rc=crf / crf=18.5 / qcomp=0.65 / qpstep=4 / stats-write=0 / stats-read=0 / vbv-maxrate=80000 / vbv-bufsize=80000 / vbv-init=0.9 / crf-max=0.0 / crf-min=0.0 / ipratio=1.40 / pbratio=1.30 / aq-mode=2 / aq-strength=0.85 / cutree / zone-count=0 / no-strict-cbr / qg-size=32 / no-rc-grain / qpmax=69 / qpmin=0 / no-const-vbv / sar=1 / overscan=0 / videoformat=5 / range=0 / colorprim=1 / transfer=1 / colormatrix=1 / chromaloc=0 / display-window=0 / cll=0,0 / min-luma=0 / max-luma=1023 / log2-max-poc-lsb=8 / vui-timing-info / vui-hrd-info / slices=1 / no-opt-qp-pps / no-opt-ref-list-length-pps / no-multi-pass-opt-rps / scenecut-bias=0.05 / hist-threshold=0.01 / no-opt-cu-delta-qp / no-aq-motion / no-hdr10 / no-hdr10-opt / no-dhdr10-opt / no-idr-recovery-sei / analysis-reuse-level=0 / analysis-save-reuse-level=0 / analysis-load-reuse-level=0 / scale-factor=0 / refine-intra=0 / refine-inter=0 / refine-mv=1 / refine-ctu-distortion=0 / no-limit-sao / ctu-info=0 / no-lowpass-dct / refine-analysis-type=0 / copy-pic=1 / max-ausize-factor=1.0 / no-dynamic-refine / no-single-sei / no-hevc-aq / no-svt / no-field / qp-adaptation-range=1.00 / no-scenecut-aware-qpconformance-window-offsets / right=0 / bottom=0 / NTMzNTQ=

  35. Language : English

  36. Default : Yes

  37. Forced : No

  38. Color range : Limited

  39. Color primaries : BT.709

  40. Transfer characteristics : BT.709

  41. Matrix coefficients : BT.709

  42. Audio #1

  43. ID : 2

  44. Format : DTS XLL

  45. Format/Info : Digital Theater Systems

  46. Commercial name : DTS-HD Master Audio

  47. Codec ID : A_DTS

  48. Duration : 1 h 27 min

  49. Bit rate mode : Variable

  50. Bit rate : 2 475 kb/s

  51. Channel(s) : 8 channels

  52. Channel layout : C L R LFE Lb Rb Lss Rss

  53. Sampling rate : 48.0 kHz

  54. Frame rate : 93.750 FPS (512 SPF)

  55. Bit depth : 16 bits

  56. Compression mode : Lossless

  57. Stream size : 1.52 GiB (14%)

  58. Title : Cantonese DTS-HD Master Audio 7.1 @ 2476 kbps

  59. Language : Chinese

  60. Default : Yes

  61. Forced : No

  62. Audio #2

  63. ID : 3

  64. Format : AC-3

  65. Format/Info : Audio Coding 3

  66. Commercial name : Dolby Digital

  67. Codec ID : A_AC3

  68. Duration : 1 h 27 min

  69. Bit rate mode : Constant

  70. Bit rate : 640 kb/s

  71. Channel(s) : 6 channels

  72. Channel layout : L R C LFE Ls Rs

  73. Sampling rate : 48.0 kHz

  74. Frame rate : 31.250 FPS (1536 SPF)

  75. Compression mode : Lossy

  76. Stream size : 402 MiB (4%)

  77. Title : Mandarin Dolby Digital Audio-EX 5.1 @ 640 kbps

  78. Language : Chinese

  79. Service kind : Complete Main

  80. Default : No

  81. Forced : No

  82. Text #1

  83. ID : 4

  84. Format : PGS

  85. Codec ID : S_HDMV/PGS

  86. Codec ID/Info : Picture based subtitle format used on BDs/HD-DVDs

  87. Duration : 1 h 23 min

  88. Bit rate : 13.8 kb/s

  89. Count of elements : 1261

  90. Stream size : 8.27 MiB (0%)

  91. Title : Cht/SUP 原盘繁体

  92. Language : Chinese

  93. Default : No

  94. Forced : No

  95. Text #2

  96. ID : 5

  97. Format : PGS

  98. Codec ID : S_HDMV/PGS

  99. Codec ID/Info : Picture based subtitle format used on BDs/HD-DVDs

  100. Duration : 1 h 23 min

  101. Bit rate : 12.6 kb/s

  102. Count of elements : 1261

  103. Stream size : 7.56 MiB (0%)

  104. Title : Chs/SUP 原盘简体

  105. Language : Chinese

  106. Default : Yes

  107. Forced : No

  108. Text #3

  109. ID : 6

  110. Format : PGS

  111. Codec ID : S_HDMV/PGS

  112. Codec ID/Info : Picture based subtitle format used on BDs/HD-DVDs

  113. Duration : 1 h 23 min

  114. Bit rate : 13.3 kb/s

  115. Count of elements : 1255

  116. Stream size : 7.95 MiB (0%)

  117. Title : Eng/SUP

  118. Language : English

  119. Default : No

  120. Forced : No

  121. Menu

  122. 00:00:00.000 : en:第 01 章

  123. 00:03:54.500 : en:第 02 章

  124. 00:06:17.792 : en:第 03 章

  125. 00:09:34.958 : en:第 04 章

  126. 00:11:24.833 : en:第 05 章

  127. 00:14:15.500 : en:第 06 章

  128. 00:18:58.417 : en:第 07 章

  129. 00:24:21.167 : en:第 08 章

  130. 00:26:07.833 : en:第 09 章

  131. 00:30:38.000 : en:第 10 章

  132. 00:34:57.417 : en:第 11 章

  133. 00:37:15.375 : en:第 12 章

  134. 00:41:57.167 : en:第 13 章

  135. 00:44:55.208 : en:第 14 章

  136. 00:50:17.500 : en:第 15 章

  137. 00:55:16.000 : en:第 16 章

  138. 00:59:42.042 : en:第 17 章

  139. 01:02:21.000 : en:第 18 章

  140. 01:05:03.000 : en:第 19 章

  141. 01:07:13.500 : en:第 20 章

  142. 01:10:39.667 : en:第 21 章

  143. 01:14:35.875 : en:第 22 章

  144. 01:17:57.500 : en:第 23 章

  145. 01:21:23.167 : en:第 24 章

  146. 01:23:55.500 : en:第 25 章


复制代码



文件下载


除非特别注明,本文『机动部队[共6部合集][国粤英多音轨/简繁英字幕].PTU.2003-2009.BluRay.1080p.2Audio.DTS-HD.MA.7.1.x265.10bit-ALT 53.25GB』来源于互联网机器人自动抓取,非本站原创。 浮游电影网不对本文拥有版权,如有侵犯,请联系邮箱:fuyouu#yandex.com[#换成@]投诉。我们会在15个工作日内删除。 但烦请转载时请标明出处:“本文转载于『浮游电影网』,原文地址:https://www.fuyouu.com/21571.html

评论吧骚年!

发表你的见解   

昵称*

E-mail*(建议输入,以便收到博主回复的提示邮件)

验证码*

您可以使用eMule或eMule Mod(Windows)、aMule(Win、Linux、Mac)等软件下载eD2k链接。。
eMule收藏集(.emulecollection)文件是您选中的所有链接的列表文件。eMule可以直接下载它们。
按住SHIFT键选择可以选中多个选择框。
可用文件名和大小选择器来选择文件。
文件名选择器帮您根据文件名称或后缀来选择文件。不分大小写。
符号使用:
和:空格( )、+
不包含:-
或:|
转义:一对英文引号("");
匹配开头:^
匹配结尾:$
例如:
选中所有名称中包含有“eMule”或“0.49c”字眼,但不包含有“exe”字眼的:emule|0.49c -exe
选中所有名称的开头是“eMule”,结尾是“0.49c”的:^emule 0.49c$
选中所有名称中带有“eMule 0.49c”的(必须是“eMule 0.49c”,中间没有别的字符,不能是“eMule fake 0.49c”),需要转义:"emule 0.49c"
大小选择器帮您根据文件大小选择文件。