当前位置: 首页 >> 港台电影 >> A计划[共2部合集][国粤英多音轨/简体字幕].Project.A.1-2.1983-1987.BluRay.1080p.2Audio.DTS-HD.MA5.1.x265.10bit-ALT 30.0 >> 正文

A计划[共2部合集][国粤英多音轨/简体字幕].Project.A.1-2.1983-1987.BluRay.1080p.2Audio.DTS-HD.MA5.1.x265.10bit-ALT 30.0

2022年04月22日 10:06:53     电影发布:来源于网络     电影分类:港台电影     评论(0)    

A计划[共2部合集][国粤英多音轨/简体字幕].Project.A.1 2.1983 1987.BluRay.1080p.2Audio.DTS HD.MA5.1.x265.10bit ALT 30.0  港台电影  第1张

◎译 名 A计划 / Project A

◎片 名 A計劃

◎年 代 1983

◎产 地 中国香港

◎类 别 喜剧 / 动作

◎语 言 粤语

◎上映日期 1983-12-22(中国香港)

◎IMDb链接 https://www.imdb.com/title/tt0085127/

◎豆瓣评分 8.1/10 (127775人评价)

◎豆瓣链接 https://movie.douban.com/subject/1297909/

◎片 长 105分钟

◎导 演 成龙 Jackie Chan (id:1054531)

◎编 剧 邓景生 Edward Tang (id:1298905)

成龙 Jackie Chan (id:1054531)

◎演 员 成龙 Jackie Chan (id:1054531)

洪金宝 Sammo Hung Kam-Bo (id:1055887)

元彪 Biao Yuen (id:1163752)

黄曼凝 Isabella Wong (id:1341914)

狄威 Dick Wei (id:1318441)

太保 Po Tai (id:1312993)

午马 Wu Ma (id:1054282)

钱嘉乐 Kar Lok Chin (id:1025476)

火星 Mars (id:1033056)

李海生 Hoi Sang Lee (id:1274574)

关海山 Hoi-Shan Kwan (id:1289167)

王伟 Wai Wong (id:1274583)

罗浩楷 Ho Kai Law (id:1329430)

刘克宣 Hark-Sun Lau (id:1340134)

韩义生 Yee Sang Hon (id:1341964)

劳拉·福纳 Lola Forner (id:1018950)

冯敬文 Ging Man Fung (id:1341397)

李健生 Chris Lee (id:1328406)

吴勉勤 Ng Min Kan (id:1326358)

萧玉 Hsiao Yu (id:1413096)

麦飞鸿 Fei-Hung Mak (id:1389316)

杜少明 Siu-Ming To (id:1360414)

梁尚云 Shang-yun Liang (id:1423007)

户田惠子 Keiko Toda (id:1051741)

朱斗 Tau Chu (id:1441054)

谈泉庆 Chuen-Hing Tam (id:1411313)

陈志辉 Chi Fai Chan (id:1312869)

张作舟 Chok Chow Cheung (id:1417191)

何云 Yun Ho (id:1417193)

沙鸥 Ou Sha (id:1423762)

尹尚林 Hsiang Lin Yin (id:1406340)

姚文基 Man-kei Yiu (id:1435360)

刘俊辉 Chun Fai Lau (id:1326417)

林富伟 Fu-wai Lam (id:1433957)

孙志伟 Chi-wei Sun (id:1430278)

林源 Lam Yuen (id:1424224)

刘允 Yue Tau Wan (id:1386905)

刘晃世 Huang-Hsi Liu (id:1413056)

张济平 Jiping Zhang (id:1329827)

Tom Konkle Tom Konkle (id:1193131)

约翰·德米塔 John DeMita (id:1081536)

E·E·贝尔 E.E. Bell (id:1061371)

丹尼·特雷霍 Danny Trejo (id:1044721)

黎强权 Benny Lai Keung-Kuen (id:1316555)

冯雪瑞 Xuerui Feng (id:1329826)

张午郎 John Cheung (id:1348971)

邓景生 Edward Tang (id:1298905)

邹文怀 Raymond Chow (id:1016883)

何冠昌 Leonard Ho (id:1286717)

陈佩华 Jessica Chan Pooi-Wa (id:1372898)

黎小田 Siu-Tin Lei (id:1289746)

张耀祖 Yiu-Tsou Cheung (id:1280628)

张耀宗 Peter Cheung (id:1280650)

赵鲁江 Lu Chiang Chao (id:1361092)

周少龙 Shao Lung Chou (id:1344862)

◎简 介

上世纪初,猖獗的香港海盗屡屡劫持商船,考虑到各国商家的投资信心会因此减少,继尔香港国际贸易中心的地位可能会不保,当局改编水师,成立了一支特警小队负责海上治安。

队长马如龙(成龙)执行公务时遭人陷害,愤而辞职。海盗头目罗三炮(狄威)抓走官兵家眷做人质,当局决定利用内线周永龄从中调停。因为早知周永龄与海盗勾结,马如龙自告奋勇拯救人质,他重组水师,制定了A计划,期望通过与上司洪天赐(元彪)及好兄弟卓一飞(洪金宝)作里应外合,将海盗一网打尽。

◎获奖情况 (共4项)

第21届台北金马影展 (1984)

金马奖 最佳男主角(提名)

└──成龙 (id:1054531)

金马奖 最佳剪辑(提名)

└──张耀宗 (id:1280650)

第4届香港电影金像奖 (1985)

最佳男主角(提名)

└──成龙 (id:1054531)

最佳服装造型设计

  1. 合集文件列表:

  2. 1.Project.A.1983.BluRay.1080p.2Audio.DTS-HD.MA5.1.x265.10bit-ALT.mkv 13.93GB

  3. 2.Project.A.Part.II.1987.BluRay.1080p.2Audio.DTS-HD.MA5.1.x265.10bit-ALT.mkv 16.15GB


复制代码

  1. ##### MediaInfo ######

  2. General

  3. Unique ID : 133542717049408266385540213189939393725 (0x6477644A842D2EAD57A66EC308F574BD)

  4. Complete name : Project.A.1983.BluRay.1080p.2Audio.DTS-HD.MA5.1.x265.10bit-BeiTai.mkv

  5. Format : Matroska

  6. Format version : Version 4

  7. File size : 13.9 GiB

  8. Duration : 1 h 45 min

  9. Overall bit rate mode : Variable

  10. Overall bit rate : 18.9 Mb/s

  11. Encoded date : UTC 2021-06-03 08:49:51

  12. Writing application : mkvmerge v49.0.0 ('Sick Of Losing Soulmates') 64-bit

  13. Writing library : libebml v1.4.0 + libmatroska v1.6.1

  14. Video

  15. ID : 1

  16. Format : HEVC

  17. Format/Info : High Efficiency Video Coding

  18. Format profile : Main [email protected]@High

  19. Codec ID : V_MPEGH/ISO/HEVC

  20. Duration : 1 h 45 min

  21. Bit rate : 14.4 Mb/s

  22. Width : 1 920 pixels

  23. Height : 804 pixels

  24. Display aspect ratio : 2.40:1

  25. Frame rate mode : Constant

  26. Frame rate : 23.976 (24000/1001/53354) FPS

  27. Color space : YUV

  28. Chroma subsampling : 4:2:0

  29. Bit depth : 10 bits

  30. Bits/(Pixel*Frame) : 0.390

  31. Stream size : 10.7 GiB (76%)

  32. Title : HEVC, [email protected]@High, 24/1.001 fps @ 14438 kbps

  33. Writing library : x265 3.4+14-gd419c7152:[Windows][GCC 10.2.0][64 bit] 10bit

  34. Encoding settings : cpuid=533541111039 / frame-threads=3 / numa-pools=8 / wpp / pmode / pme / no-psnr / no-ssim / log-level=2 / input-csp=1 / input-res=1920x804 / interlace=0 / total-frames=151961 / level-idc=51 / high-tier=1 / uhd-bd=0 / ref=5 / no-allow-non-conformance / no-repeat-headers / annexb / no-aud / no-hrd / info / hash=0 / no-temporal-layers / open-gop / min-keyint=24 / keyint=240 / gop-lookahead=0 / bframes=6 / b-adapt=2 / b-pyramid / bframe-bias=0 / rc-lookahead=40 / lookahead-slices=0 / NTMzNTQ=uuDQuD2mJt9fsCf / scenecut=40 / hist-scenecut=0 / radl=0 / no-splice / no-intra-refresh / ctu=32 / min-cu-size=8 / no-rect / no-amp / max-tu-size=32 / tu-inter-depth=3 / tu-intra-depth=3 / limit-tu=4 / rdoq-level=2 / dynamic-rd=0.00 / no-ssim-rd / signhide / no-tskip / nr-intra=0 / nr-inter=0 / no-constrained-intra / no-strong-intra-smoothing / max-merge=4 / limit-refs=1 / limit-modes / me=3 / subme=4 / merange=25 / temporal-mvp / no-frame-dup / no-hme / weightp / weightb / no-analyze-src-pics / deblock=-3:-3 / no-sao / no-sao-non-deblock / rd=6 / selective-sao=0 / no-early-skip / rskip / no-fast-intra / no-tskip-fast / no-cu-lossless / b-intra / no-splitrd-skip / rdpenalty=0 / psy-rd=2.00 / psy-rdoq=1.00 / no-rd-refine / no-lossless / cbqpoffs=0 / crqpoffs=0 / rc=crf / crf=20.0 / qcomp=0.65 / qpstep=4 / stats-write=0 / stats-read=0 / vbv-maxrate=80000 / vbv-bufsize=80000 / vbv-init=0.9 / crf-max=0.0 / crf-min=0.0 / ipratio=1.40 / pbratio=1.30 / aq-mode=2 / aq-strength=0.85 / cutree / zone-count=0 / no-strict-cbr / qg-size=32 / no-rc-grain / qpmax=69 / qpmin=0 / no-const-vbv / sar=1 / overscan=0 / videoformat=5 / range=0 / colorprim=1 / transfer=1 / colormatrix=1 / chromaloc=0 / display-window=0 / cll=0,0 / min-luma=0 / max-luma=1023 / log2-max-poc-lsb=8 / vui-timing-info / vui-hrd-info / slices=1 / no-opt-qp-pps / no-opt-ref-list-length-pps / no-multi-pass-opt-rps / scenecut-bias=0.05 / hist-threshold=0.03 / no-opt-cu-delta-qp / no-aq-motion / no-hdr10 / no-hdr10-opt / no-dhdr10-opt / no-idr-recovery-sei / analysis-reuse-level=0 / analysis-save-reuse-level=0 / analysis-load-reuse-level=0 / scale-factor=0 / refine-intra=0 / refine-inter=0 / refine-mv=1 / refine-ctu-distortion=0 / no-limit-sao / ctu-info=0 / no-lowpass-dct / refine-analysis-type=0 / copy-pic=1 / max-ausize-factor=1.0 / no-dynamic-refine / no-single-sei / no-hevc-aq / no-svt / no-field / qp-adaptation-range=1.00 / no-scenecut-aware-qpconformance-window-offsets / right=0 / bottom=0 / NTMzNTQ= / decoder-max-rate=0

  35. Language : English

  36. Default : Yes

  37. Forced : No

  38. Color range : Limited

  39. Color primaries : BT.709

  40. Transfer characteristics : BT.709

  41. Matrix coefficients : BT.709

  42. Audio #1

  43. ID : 2

  44. Format : DTS XLL

  45. Format/Info : Digital Theater Systems

  46. Commercial name : DTS-HD Master Audio

  47. Codec ID : A_DTS

  48. Duration : 1 h 45 min

  49. Bit rate mode : Variable

  50. Bit rate : 3 755 kb/s

  51. Channel(s) : 6 channels

  52. Channel layout : C L R Ls Rs LFE

  53. Sampling rate : 48.0 kHz

  54. Frame rate : 93.750 FPS (512 SPF)

  55. Bit depth : 24 bits

  56. Compression mode : Lossless

  57. Stream size : 2.77 GiB (20%)

  58. Title : Cantonese DTS-HD Master Audio 5.1 @ 3754 Kbps

  59. Language : Chinese

  60. Default : Yes

  61. Forced : No

  62. Audio #2

  63. ID : 3

  64. Format : AC-3

  65. Format/Info : Audio Coding 3

  66. Commercial name : Dolby Digital

  67. Codec ID : A_AC3

  68. Duration : 1 h 45 min

  69. Bit rate mode : Constant

  70. Bit rate : 640 kb/s

  71. Channel(s) : 6 channels

  72. Channel layout : L R C LFE Ls Rs

  73. Sampling rate : 48.0 kHz

  74. Frame rate : 31.250 FPS (1536 SPF)

  75. Compression mode : Lossy

  76. Stream size : 484 MiB (3%)

  77. Title : Mandarin Dolby Digital Audio 5.1 @ 640 Kbps

  78. Language : Chinese

  79. Service kind : Complete Main

  80. Default : No

  81. Forced : No

  82. Text #1

  83. ID : 4

  84. Format : PGS

  85. Codec ID : S_HDMV/PGS

  86. Codec ID/Info : Picture based subtitle format used on BDs/HD-DVDs

  87. Duration : 1 h 41 min

  88. Bit rate : 21.7 kb/s

  89. Count of elements : 2885

  90. Stream size : 15.8 MiB (0%)

  91. Title : Chs/SUP 简体

  92. Language : Chinese

  93. Default : Yes

  94. Forced : No

  95. Text #2

  96. ID : 5

  97. Format : PGS

  98. Codec ID : S_HDMV/PGS

  99. Codec ID/Info : Picture based subtitle format used on BDs/HD-NewHD

复制代码



文件下载


除非特别注明,本文『A计划[共2部合集][国粤英多音轨/简体字幕].Project.A.1-2.1983-1987.BluRay.1080p.2Audio.DTS-HD.MA5.1.x265.10bit-ALT 30.0』来源于互联网机器人自动抓取,非本站原创。 浮游电影网不对本文拥有版权,如有侵犯,请联系邮箱:fuyouu#yandex.com[#换成@]投诉。我们会在15个工作日内删除。 但烦请转载时请标明出处:“本文转载于『浮游电影网』,原文地址:https://www.fuyouu.com/21570.html

评论吧骚年!

发表你的见解   

昵称*

E-mail*(建议输入,以便收到博主回复的提示邮件)

验证码*

您可以使用eMule或eMule Mod(Windows)、aMule(Win、Linux、Mac)等软件下载eD2k链接。。
eMule收藏集(.emulecollection)文件是您选中的所有链接的列表文件。eMule可以直接下载它们。
按住SHIFT键选择可以选中多个选择框。
可用文件名和大小选择器来选择文件。
文件名选择器帮您根据文件名称或后缀来选择文件。不分大小写。
符号使用:
和:空格( )、+
不包含:-
或:|
转义:一对英文引号("");
匹配开头:^
匹配结尾:$
例如:
选中所有名称中包含有“eMule”或“0.49c”字眼,但不包含有“exe”字眼的:emule|0.49c -exe
选中所有名称的开头是“eMule”,结尾是“0.49c”的:^emule 0.49c$
选中所有名称中带有“eMule 0.49c”的(必须是“eMule 0.49c”,中间没有别的字符,不能是“eMule fake 0.49c”),需要转义:"emule 0.49c"
大小选择器帮您根据文件大小选择文件。