当前位置: 首页 >> 港台电影 >> 监狱风云[共2部合集][国粤英多音轨/简繁英字幕].Prison.on.Fire.1-2.1987-1991.BluRay.1080p.2Audio.DTS-HD.MA.5.1.x264-ALT 18 >> 正文

监狱风云[共2部合集][国粤英多音轨/简繁英字幕].Prison.on.Fire.1-2.1987-1991.BluRay.1080p.2Audio.DTS-HD.MA.5.1.x264-ALT 18

2022年04月22日 10:05:45     电影发布:来源于网络     电影分类:港台电影     评论(0)    

监狱风云[共2部合集][国粤英多音轨/简繁英字幕].Prison.on.Fire.1 2.1987 1991.BluRay.1080p.2Audio.DTS HD.MA.5.1.x264 ALT 18  港台电影  第1张

◎译 名 监狱风云 / Prison on Fire

◎片 名 監獄風雲

◎年 代 1987

◎产 地 中国香港

◎类 别 剧情 / 动作 / 犯罪

◎语 言 粤语

◎上映日期 1987-11-13(中国香港)

◎IMDb链接 https://www.imdb.com/title/tt0093304/

◎豆瓣评分 8.4/10 (109032人评价)

◎豆瓣链接 https://movie.douban.com/subject/1293422/

◎片 长 101分钟

◎导 演 林岭东 Ringo Lam (id:1275076)

◎编 剧 南燕 Yin Nam (id:1292902)

◎演 员 周润发 Yun-Fat Chow (id:1044899)

梁家辉 Tony Leung (id:1118167)

何家驹 Ka-Kui Ho (id:1286711)

张耀扬 Roy Cheung (id:1012751)

黄光亮 Kwong Leung Wong (id:1301194)

吴志雄 Chi Hung Ng (id:1316796)

成奎安 Fui-On Shing (id:1141665)

王文君 Man-Gwan Wong (id:1318967)

韩坤 Victor Hon Kwan (id:1365336)

霍瑞华 Terrence Fok Shui-Wa (id:1343235)

冯瑞珍 Sui Chun Fung (id:1349228)

罗树琪 Shu-Kei Law (id:1394347)

良鸣 Ming Leung (id:1344354)

黄伟辉 Wong Wai-Fai (id:1275163)

麦伟章 Wai Cheung Mak (id:1361256)

简瑞超 Ruichao Jian (id:1327644)

黃志明 Chi-Ming Wong (id:1398969)

李广添 Kwong-Tim Lee (id:1418382)

林富伟 Fu-wai Lam (id:1433957)

林岭东 Ringo Lam (id:1275076)

麦嘉 Karl Maka (id:1274986)

卢冠廷 Lowell Lo (id:1290255)

玛利亚 Maria Cordero (id:1281277)

周蓝萍 Lan-Ping Chow (id:1301714)

马楚成 Jingle Ma (id:1280599)

刘鸿泉 Hung Chuen Lau (id:1318709)

张东亮 Tony Cheung (id:1280625)

缪健辉 Tony Miu (id:1378532)

黄文云 Wen Yun Huang (id:1416801)

曹惠琪 Hui-Chi Tsao (id:1423758)

陆子峰 Chi Fung Lok (id:1290246)

刘家荣 Chia Yung Liu (id:1290162)

朱继生 Joe Chu (id:1351049)

◎简 介

年轻有为的广告设计师卢家耀(梁家辉 饰)在一次阻止不良分子寻衅滋事中失手伤人,被判服刑三年,在狱中,他因个性憨直得罪了黑帮老大,受尽欺辱,老囚犯钟天正(周润发 饰)看不过仗义相助,两人结为患难之交。

钟天正原本有完好家庭,只因嗜赌成性才误杀妻子,身陷囹圄的他追忆往事时后悔不已, 决心走出高墙后重新做人。然而,因为替卢家耀出头,他得罪了狐假虎威心狠手辣的典狱长(张耀扬 饰),自此卷入狱中恶势力的漩涡,走投无路之际,他放弃了“能忍则忍”的处世哲学,决意以暴施暴。

◎获奖情况 (共7项)

第7届香港电影金像奖 (1988)

最佳导演(提名)

└──林岭东 (id:1275076)

最佳编剧(提名)

└──南燕 (id:1292902)

最佳男主角(提名)

└──周润发 (id:1044899)

最佳男配角(提名)

最佳新演员(提名)

└──黄光亮 (id:1301194)

最佳原创电影音乐(提名)

└──卢冠廷 (id:1290255)

最佳原创电影歌曲(提名)

  1. 合集文件列表:

  2. 1.Prison.on.Fire.1987.BluRay.1080p.2Audio.DTS-HD.MA.5.1.x264-ALT.mkv 8.45GB

  3. 2.Prison.on.Fire.II.1991.BluRay.1080p.2Audio.DTS-HD.MA.5.1.x264-ALT.mkv 10.47GB


复制代码

  1. ##### MediaInfo ######

  2. General

  3. Unique ID : 41510212080237795530379547644022789236 (0x1F3A9377A3F9305A9A8DFA7CB6389474)

  4. Complete name : Prison.on.Fire.1987.BluRay.1080p.2Audio.DTS-HD.MA.5.1.x264-BeiTai.mkv

  5. Format : Matroska

  6. Format version : Version 4

  7. File size : 8.45 GiB

  8. Duration : 1 h 42 min

  9. Overall bit rate mode : Variable

  10. Overall bit rate : 11.8 Mb/s

  11. Encoded date : UTC 2019-10-15 01:07:44

  12. Writing application : mkvmerge v38.0.0 ('The Silent Type') 64-bit

  13. Writing library : libebml v1.3.9 + libmatroska v1.5.2

  14. Video

  15. ID : 1

  16. Format : HEVC

  17. Format/Info : High Efficiency Video Coding

  18. Format profile : Main [email protected]@High

  19. HDR format : SMPTE ST 2086

  20. Codec ID : V_MPEGH/ISO/HEVC

  21. Duration : 1 h 42 min

  22. Bit rate : 9 247 kb/s

  23. Width : 1 920 pixels

  24. Height : 1 080 pixels

  25. Display aspect ratio : 16:9

  26. Frame rate mode : Constant

  27. Frame rate : 23.976 (24000/1001/53354) FPS

  28. Color space : YUV

  29. Chroma subsampling : 4:2:0

  30. Bit depth : 10 bits

  31. Bits/(Pixel*Frame) : 0.186

  32. Stream size : 6.60 GiB (78%)

  33. Title : HEVC, [email protected]@High, 24/1.001 fps @ 9670 kbps

  34. Writing library : x265 3.0_Au+4-dcbec33bfb0f:[Windows][GCC 8.2.1][64 bit] 10bit

  35. Encoding settings : cpuid=533541111039 / frame-threads=3 / numa-pools=8 / wpp / pmode / pme / no-psnr / no-ssim / log-level=2 / input-csp=1 / input-res=1920x1080 / interlace=0 / total-frames=147041 / level-idc=51 / high-tier=1 / uhd-bd=0 / ref=5 / no-allow-non-conformance / repeat-headers / annexb / no-aud / no-hrd / info / hash=0 / no-temporal-layers / no-open-gop / min-keyint=24 / keyint=240 / gop-lookahead=0 / bframes=6 / b-adapt=2 / b-pyramid / bframe-bias=0 / rc-lookahead=40 / lookahead-slices=0 / NTMzNTQ=uuDQuD2mJt9fsCf / scenecut=40 / radl=0 / no-splice / no-intra-refresh / ctu=32 / min-cu-size=8 / no-rect / no-amp / max-tu-size=32 / tu-inter-depth=3 / tu-intra-depth=3 / limit-tu=4 / rdoq-level=2 / dynamic-rd=0.00 / no-ssim-rd / signhide / no-tskip / nr-intra=0 / nr-inter=0 / no-constrained-intra / no-strong-intra-smoothing / max-merge=4 / limit-refs=1 / limit-modes / me=3 / subme=4 / merange=25 / temporal-mvp / weightp / weightb / no-analyze-src-pics / deblock=-3:-3 / no-sao / no-sao-non-deblock / rd=6 / no-early-skip / rskip / no-fast-intra / no-tskip-fast / no-cu-lossless / b-intra / no-splitrd-skip / rdpenalty=0 / psy-rd=2.00 / psy-rdoq=1.00 / no-rd-refine / no-lossless / cbqpoffs=0 / crqpoffs=0 / rc=crf / crf=21.0 / qcomp=0.65 / qpstep=4 / stats-write=0 / stats-read=0 / vbv-maxrate=80000 / vbv-bufsize=80000 / vbv-init=0.9 / crf-max=0.0 / crf-min=0.0 / ipratio=1.40 / pbratio=1.30 / aq-mode=2 / aq-strength=0.85 / cutree / zone-count=0 / no-strict-cbr / qg-size=32 / no-rc-grain / qpmax=69 / qpmin=0 / no-const-vbv / sar=1 / overscan=0 / videoformat=5 / range=0 / colorprim=1 / transfer=1 / colormatrix=1 / chromaloc=0 / display-window=0 / master-display=G(15000,30000)B(7500,3000)R(32000,16500)WP(15635,16450)L(10000000,1) / max-cll=1000,1 / min-luma=0 / max-luma=1023 / log2-max-poc-lsb=8 / vui-timing-info / vui-hrd-info / slices=1 / no-opt-qp-pps / no-opt-ref-list-length-pps / no-multi-pass-opt-rps / scenecut-bias=0.05 / no-opt-cu-delta-qp / no-aq-motion / hdr / no-hdr-opt / no-dhdr10-opt / no-idr-recovery-sei / analysis-reuse-level=5 / scale-factor=0 / refine-intra=0 / refine-inter=0 / refine-mv=0 / refine-ctu-distortion=0 / no-limit-sao / ctu-info=0 / no-lowpass-dct / refine-analysis-type=0 / copy-pic=1 / max-ausize-factor=1.0 / no-dynamic-refine / no-single-sei / no-hevc-aq / qp-adaptation-range=1.00

  36. Language : English

  37. Default : Yes

  38. Forced : No

  39. Color range : Limited

  40. Color primaries : BT.709

  41. Transfer characteristics : BT.709

  42. Matrix coefficients : BT.709

  43. Mastering display color primaries : BT.709

  44. Mastering display luminance : min: 0.0001 cd/m2, max: 1000 cd/m2

  45. Maximum Content Light Level : 1000 cd/m2

  46. Maximum Frame-Average Light Level : 1 cd/m2

  47. Audio #1

  48. ID : 2

  49. Format : DTS XLL

  50. Format/Info : Digital Theater Systems

  51. Commercial name : DTS-HD Master Audio

  52. Codec ID : A_DTS

  53. Duration : 1 h 42 min

  54. Bit rate mode : Variable

  55. Bit rate : 1 834 kb/s

  56. Channel(s) : 6 channels

  57. Channel layout : C L R Ls Rs LFE

  58. Sampling rate : 48.0 kHz

  59. Frame rate : 93.750 FPS (512 SPF)

  60. Bit depth : 16 bits

  61. Compression mode : Lossless

  62. Stream size : 1.31 GiB (15%)

  63. Title : Mandarin DTS-HD Master Audio 5.1 @ 1834 kbps 国语

  64. Language : Chinese

  65. Default : Yes

  66. Forced : No

  67. Audio #2

  68. ID : 3

  69. Format : AC-3

  70. Format/Info : Audio Coding 3

  71. Commercial name : Dolby Digital

  72. Codec ID : A_AC3

  73. Duration : 1 h 42 min

  74. Bit rate mode : Constant

  75. Bit rate : 640 kb/s

  76. Channel(s) : 6 channels

  77. Channel layout : L R C LFE Ls Rs

  78. Sampling rate : 48.0 kHz

  79. Frame rate : 31.250 FPS (1536 SPF)

  80. Compression mode : Lossy

  81. Stream size : 468 MiB (5%)

  82. Title : Cantonese Dolby Digital Audio 5.1 @ 640 kbps 粤语

  83. Language : Chinese

  84. Service kind : Complete Main

  85. Default : No

  86. Forced : No

  87. Text #1

  88. ID : 4

  89. Format : PGS

  90. Codec ID : S_HDMV/PGS

  91. Codec ID/Info : Picture based subtitle format used on BDs/HD-DVDs

  92. Duration : 1 h 40 min

  93. Bit rate : 36.4 kb/s

  94. Count of elements : 3176

  95. Stream size : 26.1 MiB (0%)

  96. Title : Chs/SUP 原盘简体

  97. Language : Chinese

  98. Default : Yes

  99. Forced : No

  100. Text #2

  101. ID : 5

  102. Format : PGS

  103. Codec ID : S_HDMV/PGS

  104. Codec ID/Info : Picture based subtitle format used on BDs/HD-DVDs

  105. Duration : 1 h 40 min

  106. Bit rate : 37.6 kb/s

  107. Count of elements : 3176

  108. Stream size : 27.0 MiB (0%)

  109. Title : Cht/SUP 原盘繁体

  110. Language : Chinese

  111. Default : No

  112. Forced : No

  113. Text #3

  114. ID : 6

  115. Format : PGS

  116. Codec ID : S_HDMV/PGS

  117. Codec ID/Info : Picture based subtitle format used on BDs/HD-DVDs

  118. Duration : 1 h 40 min

  119. Bit rate : 35.4 kb/s

  120. Count of elements : 3026

  121. Stream size : 25.3 MiB (0%)

  122. Title : Eng/SUP

  123. Default : No

  124. Forced : No

  125. Menu

  126. 00:00:00.000 : en:绗?01 绔?

  127. 00:07:25.945 : en:绗?02 绔?

  128. 00:15:20.211 : en:绗?03 绔?

  129. 00:22:29.390 : en:绗?04 绔?

  130. 00:30:54.853 : en:绗?05 绔?

  131. 00:39:44.465 : en:绗?06 绔?

  132. 00:46:18.609 : en:绗?07 绔?

  133. 00:54:40.986 : en:绗?08 绔?

  134. 01:01:29.311 : en:绗?09 绔?

  135. 01:11:53.476 : en:绗?10 绔?

  136. 01:20:47.759 : en:绗?11 绔?

  137. 01:37:44.942 : en:绗?12 绔?


复制代码


文件下载


除非特别注明,本文『监狱风云[共2部合集][国粤英多音轨/简繁英字幕].Prison.on.Fire.1-2.1987-1991.BluRay.1080p.2Audio.DTS-HD.MA.5.1.x264-ALT 18』来源于互联网机器人自动抓取,非本站原创。 浮游电影网不对本文拥有版权,如有侵犯,请联系邮箱:fuyouu#yandex.com[#换成@]投诉。我们会在15个工作日内删除。 但烦请转载时请标明出处:“本文转载于『浮游电影网』,原文地址:https://www.fuyouu.com/21569.html

评论吧骚年!

发表你的见解   

昵称*

E-mail*(建议输入,以便收到博主回复的提示邮件)

验证码*

您可以使用eMule或eMule Mod(Windows)、aMule(Win、Linux、Mac)等软件下载eD2k链接。。
eMule收藏集(.emulecollection)文件是您选中的所有链接的列表文件。eMule可以直接下载它们。
按住SHIFT键选择可以选中多个选择框。
可用文件名和大小选择器来选择文件。
文件名选择器帮您根据文件名称或后缀来选择文件。不分大小写。
符号使用:
和:空格( )、+
不包含:-
或:|
转义:一对英文引号("");
匹配开头:^
匹配结尾:$
例如:
选中所有名称中包含有“eMule”或“0.49c”字眼,但不包含有“exe”字眼的:emule|0.49c -exe
选中所有名称的开头是“eMule”,结尾是“0.49c”的:^emule 0.49c$
选中所有名称中带有“eMule 0.49c”的(必须是“eMule 0.49c”,中间没有别的字符,不能是“eMule fake 0.49c”),需要转义:"emule 0.49c"
大小选择器帮您根据文件大小选择文件。