当前位置: 首页 >> 国产电影 >> 钟馗伏妖[国语配音/中文字幕].Zhong.Kui.Subdues.Demons.2022.2160p.WEB-DL.H265.AAC-CTRLWEB 8.94GB >> 正文

钟馗伏妖[国语配音/中文字幕].Zhong.Kui.Subdues.Demons.2022.2160p.WEB-DL.H265.AAC-CTRLWEB 8.94GB

2022年04月22日 09:43:57     电影发布:来源于网络     电影分类:国产电影     评论(0)    

钟馗伏妖[国语配音/中文字幕].Zhong.Kui.Subdues.Demons.2022.2160p.WEB DL.H265.AAC CTRLWEB 8.94GB  国产电影  第1张

◎译 名 钟馗伏妖

◎年 代 2022

◎产 地 中国大陆

◎类 别 惊悚 / 恐怖 / 奇幻

◎语 言 汉语普通话

◎上映日期 2022-03-11(中国大陆)

◎IMDb链接 https://www.imdb.com/title//

◎豆瓣链接 https://movie.douban.com/subject/35682543/

◎片 长 85分钟

◎编 剧 黄军荣 Junrong Huang (id:1413972)

◎演 员 琪格 Qige (id:1458481)

叶常清 Changqing Ye (id:1377566)

◎简 介

故事根据民间传说“钟馗伏妖”故事改编。

每逢千年便有日食天象,届时更是昆仑山灵力最弱,阴气最盛之时。此时,昆仑山魔井开启,魔能涌出,万妖出动。

妖魔或附身于常人,夜间吸食人类阳气,被侵蚀的人们诡异而凶残;或化为人形捕食人类。恐怖灵异事件不断,你我之间难分人妖,人间如地狱般阴郁恐怖。

终南山进士钟馗不惧邪祟,与师傅一起斩妖除魔,却发现在妖身后,还有更惊人、更令人恐惧、更令他难以抉择的真相在等待着他……

  1. ##### MediaInfo ######

  2. General

  3. Complete name : Zhong.Kui.Subdues.Demons.2022.2160p.WEB-DL.H265.AAC-CHDWEB.mp4

  4. Format : MPEG-4

  5. Format profile : Base Media

  6. Codec ID : isom (isom/iso2/mp41)

  7. File size : 8.94 GiB

  8. Duration : 1 h 24 min

  9. Overall bit rate mode : Variable

  10. Overall bit rate : 15.2 Mb/s

  11. Recorded date : 2022-04-21T15:14:48.3339236+08:00

  12. Writing application : Lavf58.32.104

  13. Video

  14. ID : 1

  15. Format : HEVC

  16. Format/Info : High Efficiency Video Coding

  17. Format profile : [email protected]@High

  18. Codec ID : hev1

  19. Codec ID/Info : High Efficiency Video Coding

  20. Duration : 1 h 24 min

  21. Bit rate : 15.0 Mb/s

  22. Width : 4 096 pixels

  23. Height : 1 746 pixels

  24. Display aspect ratio : 2.35:1

  25. Original display aspect ratio : 2.35:1

  26. Frame rate mode : Variable

  27. Frame rate : 25.000 FPS

  28. Minimum frame rate : 25.000 FPS

  29. Maximum frame rate : 90 000.000 FPS

  30. Color space : YUV

  31. Chroma subsampling : 4:2:0

  32. Bit depth : 8 bits

  33. Bits/(Pixel*Frame) : 0.084

  34. Stream size : 8.86 GiB (99%)

  35. Codec configuration box : hvcC

  36. Audio

  37. ID : 2

  38. Format : AAC LC

  39. Format/Info : Advanced Audio Codec Low Complexity

  40. Codec ID : mp4a-40-2

  41. Duration : 1 h 24 min

  42. Bit rate mode : Variable

  43. Bit rate : 125 kb/s

  44. Maximum bit rate : 128 kb/s

  45. Channel(s) : 2 channels

  46. Channel layout : L R

  47. Sampling rate : 48.0 kHz

  48. Frame rate : 46.875 FPS (1024 SPF)

  49. Compression mode : Lossy

  50. Stream size : 75.7 MiB (1%)

  51. Language : English

  52. Default : Yes

  53. Alternate group : 1


复制代码



文件下载


除非特别注明,本文『钟馗伏妖[国语配音/中文字幕].Zhong.Kui.Subdues.Demons.2022.2160p.WEB-DL.H265.AAC-CTRLWEB 8.94GB』来源于互联网机器人自动抓取,非本站原创。 浮游电影网不对本文拥有版权,如有侵犯,请联系邮箱:fuyouu#yandex.com[#换成@]投诉。我们会在15个工作日内删除。 但烦请转载时请标明出处:“本文转载于『浮游电影网』,原文地址:https://www.fuyouu.com/21556.html

评论吧骚年!

发表你的见解   

昵称*

E-mail*(建议输入,以便收到博主回复的提示邮件)

验证码*

您可以使用eMule或eMule Mod(Windows)、aMule(Win、Linux、Mac)等软件下载eD2k链接。。
eMule收藏集(.emulecollection)文件是您选中的所有链接的列表文件。eMule可以直接下载它们。
按住SHIFT键选择可以选中多个选择框。
可用文件名和大小选择器来选择文件。
文件名选择器帮您根据文件名称或后缀来选择文件。不分大小写。
符号使用:
和:空格( )、+
不包含:-
或:|
转义:一对英文引号("");
匹配开头:^
匹配结尾:$
例如:
选中所有名称中包含有“eMule”或“0.49c”字眼,但不包含有“exe”字眼的:emule|0.49c -exe
选中所有名称的开头是“eMule”,结尾是“0.49c”的:^emule 0.49c$
选中所有名称中带有“eMule 0.49c”的(必须是“eMule 0.49c”,中间没有别的字符,不能是“eMule fake 0.49c”),需要转义:"emule 0.49c"
大小选择器帮您根据文件大小选择文件。