当前位置: 首页 >> 国产电影 >> 环线[杜比视界版本][国语配音/中文字幕].The.Labyrint.2022.2160p.WEB-DL.H265.DV.AAC.2Audio-HDBWEB 16.30GB >> 正文

环线[杜比视界版本][国语配音/中文字幕].The.Labyrint.2022.2160p.WEB-DL.H265.DV.AAC.2Audio-HDBWEB 16.30GB

2022年04月22日 09:42:09     电影发布:来源于网络     电影分类:国产电影     评论(0)    

环线[杜比视界版本][国语配音/中文字幕].The.Labyrint.2022.2160p.WEB DL.H265.DV.AAC.2Audio HDBWEB 16.30GB  国产电影  第1张

◎译 名 环线

◎年 代 2022

◎产 地 中国大陆

◎类 别 动作 / 科幻 / 冒险 / 灾难

◎语 言 汉语普通话

◎上映日期 2022-04-20(中国大陆网络)

◎IMDb链接 https://www.imdb.com/title//

◎豆瓣链接 https://movie.douban.com/subject/35860951/

◎编 剧 金晓 Xiao Jin (id:1334557)

王匡敏 Kuangmin Wang (id:1334554)

◎演 员 陈小春 Jordan Chan (id:1075760)

彭敬慈 Samuel Pang (id:1132694)

郭珺 Jun Guo (id:1457944)

纪海星 Haixing Ji (id:1414489)

◎简 介

故事讲述了以刀哥(陈小春 饰)和高飞(彭敬慈 饰)为首的一群普通人,在一场离奇的地铁事故中,遭遇到变异嗜血的生化蜈蚣,众人从一开始的猜忌自保,到最后齐心协力共同对战地底巨兽的故事。影片中凶残无比的怪异巨型蜈蚣、诡谲莫测的地下洞窟、坠落深渊的环线地铁,所有的一切都让逃生之路变的危机重重。

  1. ##### MediaInfo ######

  2. General

  3. Complete name : 环线.The.Labyrint.2022.2160p.WEB-DL.H265.DV.AAC.2Audio-OurTV.mp4

  4. Format : MPEG-4

  5. Format profile : Base Media / Version 2

  6. Codec ID : mp42 (mp42/iso6/isom/msdh/dby1)

  7. File size : 16.3 GiB

  8. Duration : 1 h 9 min

  9. Overall bit rate mode : Variable

  10. Overall bit rate : 33.7 Mb/s

  11. Encoded date : UTC 2022-04-21 02:12:50

  12. Tagged date : UTC 2022-04-21 02:12:50

  13. Video

  14. ID : 1

  15. Format : HEVC

  16. Format/Info : High Efficiency Video Coding

  17. Format profile : Main [email protected]@Main

  18. HDR format : Dolby Vision, Version 1.0, dvhe.05.06, BL+RPU

  19. Codec ID : dvhe

  20. Codec ID/Info : High Efficiency Video Coding with Dolby Vision

  21. Duration : 1 h 9 min

  22. Bit rate : 33.2 Mb/s

  23. Width : 3 840 pixels

  24. Height : 1 600 pixels

  25. Display aspect ratio : 2.40:1

  26. Frame rate mode : Constant

  27. Frame rate : 25.000 FPS

  28. Color space : YUV

  29. Chroma subsampling : 4:2:0

  30. Bit depth : 10 bits

  31. Bits/(Pixel*Frame) : 0.216

  32. Stream size : 16.0 GiB (98%)

  33. Default : Yes

  34. Alternate group : 1

  35. Encoded date : UTC 2022-04-21 02:12:50

  36. Tagged date : UTC 2022-04-21 02:12:50

  37. Color range : Full

  38. Codec configuration box : hvcC+dvcC

  39. Audio #1

  40. ID : 2

  41. Format : AAC LC

  42. Format/Info : Advanced Audio Codec Low Complexity

  43. Codec ID : mp4a-40-2

  44. Duration : 1 h 9 min

  45. Bit rate mode : Variable

  46. Bit rate : 253 kb/s

  47. Maximum bit rate : 258 kb/s

  48. Channel(s) : 2 channels

  49. Channel layout : L R

  50. Sampling rate : 48.0 kHz

  51. Frame rate : 46.875 FPS (1024 SPF)

  52. Compression mode : Lossy

  53. Stream size : 125 MiB (1%)

  54. Language : Chinese

  55. Default : Yes

  56. Alternate group : 2

  57. Encoded date : UTC 2022-04-21 02:12:50

  58. Tagged date : UTC 2022-04-21 02:12:50

  59. Audio #2

  60. ID : 3

  61. Format : AAC LC

  62. Format/Info : Advanced Audio Codec Low Complexity

  63. Codec ID : mp4a-40-2

  64. Duration : 1 h 9 min

  65. Bit rate mode : Variable

  66. Bit rate : 253 kb/s

  67. Maximum bit rate : 258 kb/s

  68. Channel(s) : 2 channels

  69. Channel layout : L R

  70. Sampling rate : 48.0 kHz

  71. Frame rate : 46.875 FPS (1024 SPF)

  72. Compression mode : Lossy

  73. Stream size : 125 MiB (1%)

  74. Language : Chinese

  75. Default : No

  76. Alternate group : 2

  77. Encoded date : UTC 2022-04-21 02:12:50

  78. Tagged date : UTC 2022-04-21 02:12:50


复制代码



文件下载


除非特别注明,本文『环线[杜比视界版本][国语配音/中文字幕].The.Labyrint.2022.2160p.WEB-DL.H265.DV.AAC.2Audio-HDBWEB 16.30GB』来源于互联网机器人自动抓取,非本站原创。 浮游电影网不对本文拥有版权,如有侵犯,请联系邮箱:fuyouu#yandex.com[#换成@]投诉。我们会在15个工作日内删除。 但烦请转载时请标明出处:“本文转载于『浮游电影网』,原文地址:https://www.fuyouu.com/21555.html

评论吧骚年!

发表你的见解   

昵称*

E-mail*(建议输入,以便收到博主回复的提示邮件)

验证码*

您可以使用eMule或eMule Mod(Windows)、aMule(Win、Linux、Mac)等软件下载eD2k链接。。
eMule收藏集(.emulecollection)文件是您选中的所有链接的列表文件。eMule可以直接下载它们。
按住SHIFT键选择可以选中多个选择框。
可用文件名和大小选择器来选择文件。
文件名选择器帮您根据文件名称或后缀来选择文件。不分大小写。
符号使用:
和:空格( )、+
不包含:-
或:|
转义:一对英文引号("");
匹配开头:^
匹配结尾:$
例如:
选中所有名称中包含有“eMule”或“0.49c”字眼,但不包含有“exe”字眼的:emule|0.49c -exe
选中所有名称的开头是“eMule”,结尾是“0.49c”的:^emule 0.49c$
选中所有名称中带有“eMule 0.49c”的(必须是“eMule 0.49c”,中间没有别的字符,不能是“eMule fake 0.49c”),需要转义:"emule 0.49c"
大小选择器帮您根据文件大小选择文件。