当前位置: 首页 >> 欧美电影 >> 莫扎特传[中文字幕].Amadeus.1984.DC.1080p.BluRay.REMUX.VC-1.DTS-HD.MA.TrueHD.5.1-FGT 28.39GB >> 正文

莫扎特传[中文字幕].Amadeus.1984.DC.1080p.BluRay.REMUX.VC-1.DTS-HD.MA.TrueHD.5.1-FGT 28.39GB

2022年04月22日 09:39:11     电影发布:来源于网络     电影分类:欧美电影     评论(0)    

莫扎特传[中文字幕].Amadeus.1984.DC.1080p.BluRay.REMUX.VC 1.DTS HD.MA.TrueHD.5.1 FGT 28.39GB  欧美电影  第1张

◎译 名 莫扎特传 / 阿玛迪斯(台) / 上帝的宠儿 / 阿玛多伊斯 / 莫札特传

◎片 名 Amadeus

◎年 代 1984

◎产 地 美国 / 法国 / 捷克斯洛伐克 / 意大利

◎类 别 剧情 / 音乐 / 传记 / 历史

◎语 言 英语 / 意大利语 / 拉丁语 / 德语

◎上映日期 1984-09-19(美国)

◎IMDb链接 https://www.imdb.com/title/tt0086879/

◎豆瓣评分 8.7/10 (91239人评价)

◎豆瓣链接 https://movie.douban.com/subject/1293399/

◎片 长 160分钟

◎导 演 米洛斯·福尔曼 Milo? Forman (id:1053561)

◎编 剧 彼得·谢弗 Peter Shaffer (id:1045440)

兹德内克·马勒 Zdenek Mahler (id:1038751)

◎演 员 F·默里·亚伯拉罕 F. Murray Abraham (id:1055073)

汤姆·休斯克 Tom Hulce (id:1036401)

伊丽莎白·贝里奇 Elizabeth Berridge (id:1054824)

罗伊·多特里斯 Roy Dotrice (id:1019181)

西蒙·卡洛 Simon Callow (id:1019096)

克斯汀·埃伯索尔 Christine Ebersole (id:1055425)

杰弗瑞·琼斯 Jeffrey Jones (id:1027832)

查尔斯·凯 Charles Kay (id:1107952)

肯尼思·麦克米伦 Kenneth McMillan (id:1124710)

肯尼·贝克 Kenny Baker (id:1058729)

Lisabeth Bartlett Lisabeth Bartlett (id:1065630)

Roderick Cook Roderick Cook (id:1076009)

Richard Frank Richard Frank (id:1079936)

Patrick Hines Patrick Hines (id:1094525)

Nicholas Kepros Nicholas Kepros (id:1109476)

Jonathan Moore Jonathan Moore (id:1128771)

辛西娅·尼克松 Cynthia Nixon (id:1002678)

布赖恩·佩蒂福 Brian Pettifer (id:1370756)

文森特·斯卡维利 Vincent Schiavelli (id:1041166)

Douglas Seale Douglas Seale (id:1142403)

Cassie Stuart Cassie Stuart (id:1387270)

约翰·斯特劳斯 John Strauss (id:1298539)

Eva Senková Eva Senková (id:1145890)

Ladislav Krecmer Ladislav Krecmer (id:1103198)

卡雷尔·菲亚拉 Karel Fiala (id:1088892)

William Whitener William Whitener (id:1215799)

哈娜·布赖霍娃 Hana Brejchová (id:1069749)

Miriam Chytilová Miriam Chytilová (id:1076058)

卡雷尔·叶法 Karel Effa (id:1083466)

Radka Fiedlerová Radka Fiedlerová (id:1086356)

卡雷尔·哈布尔 Karel Hábl (id:1106285)

Atka Janousková Atka Janousková (id:1113949)

Jirí Krytinár Jirí Krytinár (id:1103896)

伊里·里拉 Jirí Lír (id:1125136)

Jitka Molavcová Jitka Molavcová (id:1121557)

Pavel Novy Pavel Novy (id:1131181)

扬·波汉 Jan Pohan (id:1127618)

Therese Herz Therese Herz (id:1100218)

Milan Riehs Milan Riehs (id:1140224)

达娜·瓦罗娃 Dana Vávrová (id:1023308)

June Anderson June Anderson (id:1058471)

Isobel Buchanan Isobel Buchanan (id:1075010)

Anne Howells Anne Howells (id:1093584)

Robin Leggate Robin Leggate (id:1114564)

Felicity Lott Felicity Lott (id:1117876)

兹德内克·马勒 Zdenek Mahler (id:1038751)

童自荣 Zirong Tong (id:1318216)

索尔·扎恩兹 Saul Zaentz (id:1032654)

迈克尔·豪斯曼 Michael Hausman (id:1286234)

米洛斯拉夫·昂德利克 Miroslav Ondrícek (id:1042131)

迈克尔·钱德勒 Michael Chandler (id:1280454)

内娜·达奈维奇 Nena Danevic (id:1281770)

帕特里季亚·冯·布兰登斯坦 Patrizia von Brandenstein (id:1300169)

保罗·勒布朗 Paul LeBlanc (id:1289615)

迈克尔·豪斯曼 Michael Hausman (id:1286234)

◎简 介

本片从一个宫廷乐师萨里埃利的角度,为我们呈现了天才莫扎特的一生。萨里埃利(F·莫里·亚伯拉罕 F. Murray Abraham饰)是维也纳音乐界里有名的人物,自视甚高的他自从遇到了莫扎特(汤姆·休斯克 Tom Hulce饰),心里的妒嫉之火便熊熊燃烧不能平息。莫扎特总能以他超乎常人的音乐作品赢得全场惊叹,他的《费加罗的婚礼》等歌剧,都成了传颂千古的经典。

萨里埃利对莫扎特又羡慕又嫉恨的心理已经发展到几乎扭曲的地步。他在莫扎特的事业上一次次的从中作梗——故意缩短歌剧的上演周期,恶意删改莫扎特的作品,在莫扎特承受着丧父之痛时给他无情的精神折磨。贫穷虚弱的莫扎特在生命最后的几年里,写就遗作《安魂曲》,一代大师35岁就与世长辞,留下不朽作品。而萨里埃利,早有等待他的宿命般的结局。

◎获奖情况 (共11项)

第57届奥斯卡金像奖 (1985)

最佳影片

└──索尔·扎恩兹 (id:1032654)

最佳导演

└──米洛斯·福尔曼 (id:1053561)

最佳男主角

└──F·默里·亚伯拉罕 (id:1055073)

最佳男主角(提名)

└──汤姆·休斯克 (id:1036401)

最佳改编剧本

└──彼得·谢弗 (id:1045440)

最佳摄影(提名)

└──米洛斯拉夫·昂德利克 (id:1042131)

最佳剪辑(提名)

最佳音响

最佳艺术指导

最佳服装设计

└──西奥多·皮斯泰克 (id:1130689)

最佳化妆

  1. Video

  2. ID : 1

  3. ID in the original source medium : 4113 (0x1011)

  4. Format : VC-1

  5. Format profile : [email protected]

  6. Codec ID : V_MS/VFW/FOURCC / WVC1

  7. Codec ID/Hint : Microsoft

  8. Duration : 3 h 0 min

  9. Bit rate : 16.7 Mb/s

  10. Width : 1 920 pixels

  11. Height : 1 080 pixels

  12. Display aspect ratio : 16:9

  13. Frame rate mode : Constant

  14. Frame rate : 23.976 (24000/1001/53354) FPS

  15. Color space : YUV

  16. Chroma subsampling : 4:2:0

  17. Bit depth : 8 bits

  18. Scan type : Progressive

  19. Compression mode : Lossy

  20. Bits/(Pixel*Frame) : 0.336

  21. Stream size : 21.0 GiB (74%)

  22. Language : English

  23. Default : No

  24. Forced : No

  25. Original source medium : Blu-ray


  26. Audio #1

  27. ID : 2

  28. ID in the original source medium : 4352 (0x1100)

  29. Format : MLP FBA

  30. Format/Info : Meridian Lossless Packing FBA

  31. Commercial name : Dolby TrueHD

  32. Codec ID : A_TRUEHD

  33. Duration : 3 h 0 min

  34. Bit rate mode : Variable

  35. Bit rate : 1 396 kb/s

  36. Maximum bit rate : 2 502 kb/s

  37. Channel(s) : 6 channels

  38. Channel layout : L R C LFE Ls Rs

  39. Sampling rate : 48.0 kHz

  40. Frame rate : 1 200.000 FPS (40 SPF)

  41. Bit depth : 24 bits

  42. Compression mode : Lossless

  43. Stream size : 1.76 GiB (6%)

  44. Title : TrueHD 5.1

  45. Language : English

  46. Default : Yes

  47. Forced : No

  48. Original source medium : Blu-ray


  49. Audio #2

  50. ID : 3

  51. Format : DTS XLL

  52. Format/Info : Digital Theater Systems

  53. Commercial name : DTS-HD Master Audio

  54. Codec ID : A_DTS

  55. Duration : 3 h 0 min

  56. Bit rate mode : Variable

  57. Bit rate : 2 159 kb/s

  58. Channel(s) : 6 channels

  59. Channel layout : C L R Ls Rs LFE

  60. Sampling rate : 48.0 kHz

  61. Frame rate : 93.750 FPS (512 SPF)

  62. Bit depth : 16 bits

  63. Compression mode : Lossless

  64. Stream size : 2.72 GiB (10%)

  65. Title : DTS-HD MA 5.1

  66. Language : English

  67. Default : No

  68. Forced : No


  69. Audio #3

  70. ID : 4

  71. ID in the original source medium : 4352 (0x1100)

  72. Format : AC-3

  73. Format/Info : Audio Coding 3

  74. Commercial name : Dolby Digital

  75. Codec ID : A_AC3

  76. Duration : 3 h 0 min

  77. Bit rate mode : Constant

  78. Bit rate : 640 kb/s

  79. Channel(s) : 6 channels

  80. Channel layout : L R C LFE Ls Rs

  81. Sampling rate : 48.0 kHz

  82. Frame rate : 31.250 FPS (1536 SPF)

  83. Compression mode : Lossy

  84. Stream size : 826 MiB (3%)

  85. Title : DD 5.1

  86. Language : English

  87. Service kind : Complete Main

  88. Default : No

  89. Forced : No

  90. Original source medium : Blu-ray


  91. Audio #4

  92. ID : 5

  93. ID in the original source medium : 4353 (0x1101)

  94. Format : AC-3

  95. Format/Info : Audio Coding 3

  96. Commercial name : Dolby Digital

  97. Codec ID : A_AC3

  98. Duration : 3 h 0 min

  99. Bit rate mode : Constant

  100. Bit rate : 640 kb/s

  101. Channel(s) : 6 channels

  102. Channel layout : L R C LFE Ls Rs

  103. Sampling rate : 48.0 kHz

  104. Frame rate : 31.250 FPS (1536 SPF)

  105. Compression mode : Lossy

  106. Stream size : 826 MiB (3%)

  107. Title : DD 5.1

  108. Language : Czech

  109. Service kind : Complete Main

  110. Default : No

  111. Forced : No

  112. Original source medium : Blu-ray


  113. Audio #5

  114. ID : 6

  115. ID in the original source medium : 4354 (0x1102)

  116. Format : AC-3

  117. Format/Info : Audio Coding 3

  118. Commercial name : Dolby Digital

  119. Codec ID : A_AC3

  120. Duration : 3 h 0 min

  121. Bit rate mode : Constant

  122. Bit rate : 640 kb/s

  123. Channel(s) : 6 channels

  124. Channel layout : L R C LFE Ls Rs

  125. Sampling rate : 48.0 kHz

  126. Frame rate : 31.250 FPS (1536 SPF)

  127. Compression mode : Lossy

  128. Stream size : 826 MiB (3%)

  129. Title : DD 5.1

  130. Language : Hungarian

  131. Service kind : Complete Main

  132. Default : No

  133. Forced : No

  134. Original source medium : Blu-ray


  135. Audio #6

  136. ID : 7

  137. ID in the original source medium : 4355 (0x1103)

  138. Format : AC-3

  139. Format/Info : Audio Coding 3

  140. Commercial name : Dolby Digital

  141. Codec ID : A_AC3

  142. Duration : 3 h 0 min

  143. Bit rate mode : Constant

  144. Bit rate : 192 kb/s

  145. Channel(s) : 2 channels

  146. Channel layout : L R

  147. Sampling rate : 48.0 kHz

  148. Frame rate : 31.250 FPS (1536 SPF)

  149. Compression mode : Lossy

  150. Stream size : 248 MiB (1%)

  151. Title : DD 2.0

  152. Language : Thai

  153. Service kind : Complete Main

  154. Default : No

  155. Forced : No

  156. Original source medium : Blu-ray


  157. Text #1

  158. ID : 8

  159. Format : UTF-8

  160. Codec ID : S_TEXT/UTF8

  161. Codec ID/Info : UTF-8 Plain Text

  162. Duration : 2 h 59 min

  163. Bit rate : 38 b/s

  164. Count of elements : 1642

  165. Stream size : 51.3 KiB (0%)

  166. Language : English

  167. Default : Yes

  168. Forced : No


  169. Text #2

  170. ID : 9

  171. Format : UTF-8

  172. Codec ID : S_TEXT/UTF8

  173. Codec ID/Info : UTF-8 Plain Text

  174. Duration : 2 h 59 min

  175. Bit rate : 39 b/s

  176. Count of elements : 1721

  177. Stream size : 52.4 KiB (0%)

  178. Title : SDH

  179. Language : English

  180. Default : No

  181. Forced : No


  182. Text #3

  183. ID : 10

  184. ID in the original source medium : 4608 (0x1200)

  185. Format : PGS

  186. Muxing mode : zlib

  187. Codec ID : S_HDMV/PGS

  188. Codec ID/Info : Picture based subtitle format used on BDs/HD-DVDs

  189. Duration : 2 h 59 min

  190. Bit rate : 23.8 kb/s

  191. Count of elements : 3572

  192. Stream size : 30.6 MiB (0%)

  193. Language : English

  194. Default : No

  195. Forced : No

  196. Original source medium : Blu-ray


  197. Text #4

  198. ID : 11

  199. ID in the original source medium : 4609 (0x1201)

  200. Format : PGS

  201. Muxing mode : zlib

  202. Codec ID : S_HDMV/PGS

  203. Codec ID/Info : Picture based subtitle format used on BDs/HD-DVDs

  204. Duration : 2 h 59 min

  205. Bit rate : 21.7 kb/s

  206. Count of elements : 3318

  207. Stream size : 27.9 MiB (0%)

  208. Language : Chinese

  209. Default : No

  210. Forced : No

  211. Original source medium : Blu-ray


  212. Text #5

  213. ID : 12

  214. ID in the original source medium : 4610 (0x1202)

  215. Format : PGS

  216. Muxing mode : zlib

  217. Codec ID : S_HDMV/PGS

  218. Codec ID/Info : Picture based subtitle format used on BDs/HD-DVDs

  219. Duration : 2 h 59 min

  220. Bit rate : 19.5 kb/s

  221. Count of elements : 3306

  222. Stream size : 25.1 MiB (0%)

  223. Language : Chinese

  224. Default : No

  225. Forced : No

  226. Original source medium : Blu-ray


  227. Text #6

  228. ID : 13

  229. ID in the original source medium : 4611 (0x1203)

  230. Format : PGS

  231. Muxing mode : zlib

  232. Codec ID : S_HDMV/PGS

  233. Codec ID/Info : Picture based subtitle format used on BDs/HD-DVDs

  234. Duration : 2 h 59 min

  235. Bit rate : 19.6 kb/s

  236. Count of elements : 3306

  237. Stream size : 25.3 MiB (0%)

  238. Language : Chinese

  239. Default : No

  240. Forced : No

  241. Original source medium : Blu-ray


  242. Text #7

  243. ID : 14

  244. ID in the original source medium : 4612 (0x1204)

  245. Format : PGS

  246. Muxing mode : zlib

  247. Codec ID : S_HDMV/PGS

  248. Codec ID/Info : Picture based subtitle format used on BDs/HD-DVDs

  249. Duration : 2 h 59 min

  250. Bit rate : 20.6 kb/s

  251. Count of elements : 3294

  252. Stream size : 26.5 MiB (0%)

  253. Language : Czech

  254. Default : No

  255. Forced : No

  256. Original source medium : Blu-ray


  257. Text #8

  258. ID : 15

  259. ID in the original source medium : 4613 (0x1205)

  260. Format : PGS

  261. Muxing mode : zlib

  262. Codec ID : S_HDMV/PGS

  263. Codec ID/Info : Picture based subtitle format used on BDs/HD-DVDs

  264. Duration : 2 h 59 min

  265. Bit rate : 22.5 kb/s

  266. Count of elements : 3254

  267. Stream size : 28.9 MiB (0%)

  268. Language : Greek

  269. Default : No

  270. Forced : No

  271. Original source medium : Blu-ray


  272. Text #9

  273. ID : 16

  274. ID in the original source medium : 4614 (0x1206)

  275. Format : PGS

  276. Muxing mode : zlib

  277. Codec ID : S_HDMV/PGS

  278. Codec ID/Info : Picture based subtitle format used on BDs/HD-DVDs

  279. Duration : 2 h 59 min

  280. Bit rate : 16.3 kb/s

  281. Count of elements : 3284

  282. Stream size : 20.9 MiB (0%)

  283. Language : Hebrew

  284. Default : No

  285. Forced : No

  286. Original source medium : Blu-ray


  287. Text #10

  288. ID : 17

  289. ID in the original source medium : 4615 (0x1207)

  290. Format : PGS

  291. Muxing mode : zlib

  292. Codec ID : S_HDMV/PGS

  293. Codec ID/Info : Picture based subtitle format used on BDs/HD-DVDs

  294. Duration : 2 h 59 min

  295. Bit rate : 19.8 kb/s

  296. Count of elements : 3302

  297. Stream size : 25.5 MiB (0%)

  298. Language : Hungarian

  299. Default : No

  300. Forced : No

  301. Original source medium : Blu-ray


  302. Text #11

  303. ID : 18

  304. ID in the original source medium : 4616 (0x1208)

  305. Format : PGS

  306. Muxing mode : zlib

  307. Codec ID : S_HDMV/PGS

  308. Codec ID/Info : Picture based subtitle format used on BDs/HD-DVDs

  309. Duration : 2 h 59 min

  310. Bit rate : 20.0 kb/s

  311. Count of elements : 3282

  312. Stream size : 25.8 MiB (0%)

  313. Language : Romanian

  314. Default : No

  315. Forced : No

  316. Original source medium : Blu-ray


  317. Text #12

  318. ID : 19

  319. ID in the original source medium : 4617 (0x1209)

  320. Format : PGS

  321. Muxing mode : zlib

  322. Codec ID : S_HDMV/PGS

  323. Codec ID/Info : Picture based subtitle format used on BDs/HD-DVDs

  324. Duration : 2 h 59 min

  325. Bit rate : 21.9 kb/s

  326. Count of elements : 3302

  327. Stream size : 28.2 MiB (0%)

  328. Language : Thai

  329. Default : No

  330. Forced : No

  331. Original source medium : Blu-ray


  332. Text #13

  333. ID : 20

  334. ID in the original source medium : 4618 (0x120A)

  335. Format : PGS

  336. Muxing mode : zlib

  337. Codec ID : S_HDMV/PGS

  338. Codec ID/Info : Picture based subtitle format used on BDs/HD-DVDs

  339. Duration : 2 h 59 min

  340. Bit rate : 21.7 kb/s

  341. Count of elements : 3302

  342. Stream size : 28.0 MiB (0%)

  343. Language : Turkish

  344. Default : No

  345. Forced : No

  346. Original source medium : Blu-ray


  347. Menu

  348. 00:00:00.000 : en:Chapter 01

  349. 00:04:43.324 : en:Chapter 02

  350. 00:09:47.378 : en:Chapter 03

  351. 00:12:52.438 : en:Chapter 04

  352. 00:19:58.655 : en:Chapter 05

  353. 00:24:34.181 : en:Chapter 06

  354. 00:26:52.110 : en:Chapter 07

  355. 00:31:32.515 : en:Chapter 08

  356. 00:37:28.120 : en:Chapter 09

  357. 00:43:20.889 : en:Chapter 10

  358. 00:45:27.641 : en:Chapter 11

  359. 00:47:51.451 : en:Chapter 12

  360. 00:50:41.955 : en:Chapter 13

  361. 00:55:51.056 : en:Chapter 14

  362. 00:58:59.494 : en:Chapter 15

  363. 01:02:27.869 : en:Chapter 16

  364. 01:08:34.276 : en:Chapter 17

  365. 01:09:54.398 : en:Chapter 18

  366. 01:13:16.517 : en:Chapter 19

  367. 01:16:11.441 : en:Chapter 20

  368. 01:20:48.468 : en:Chapter 21

  369. 01:23:25.208 : en:Chapter 22

  370. 01:26:30.894 : en:Chapter 23

  371. 01:30:03.064 : en:Chapter 24

  372. 01:33:54.170 : en:Chapter 25

  373. 01:40:28.063 : en:Chapter 26

  374. 01:45:06.216 : en:Chapter 27

  375. 01:47:20.934 : en:Chapter 28

  376. 01:50:21.114 : en:Chapter 29

  377. 01:54:45.545 : en:Chapter 30

  378. 02:01:04.257 : en:Chapter 31

  379. 02:04:36.844 : en:Chapter 32

  380. 02:06:50.603 : en:Chapter 33

  381. 02:10:58.141 : en:Chapter 34

  382. 02:13:04.685 : en:Chapter 35

  383. 02:15:28.787 : en:Chapter 36

  384. 02:19:00.582 : en:Chapter 37

  385. 02:24:30.119 : en:Chapter 38

  386. 02:27:06.567 : en:Chapter 39

  387. 02:31:10.394 : en:Chapter 40

  388. 02:36:40.891 : en:Chapter 41

  389. 02:42:08.135 : en:Chapter 42

  390. 02:45:06.354 : en:Chapter 43

  391. 02:49:11.975 : en:Chapter 44

  392. 02:52:44.103 : en:Chapter 45

  393. 02:54:54.108 : en:Chapter 46

复制代码

莫扎特传[中文字幕].Amadeus.1984.DC.1080p.BluRay.REMUX.VC 1.DTS HD.MA.TrueHD.5.1 FGT 28.39GB  欧美电影  第2张 莫扎特传[中文字幕].Amadeus.1984.DC.1080p.BluRay.REMUX.VC 1.DTS HD.MA.TrueHD.5.1 FGT 28.39GB  欧美电影  第3张 莫扎特传[中文字幕].Amadeus.1984.DC.1080p.BluRay.REMUX.VC 1.DTS HD.MA.TrueHD.5.1 FGT 28.39GB  欧美电影  第4张




文件下载


除非特别注明,本文『莫扎特传[中文字幕].Amadeus.1984.DC.1080p.BluRay.REMUX.VC-1.DTS-HD.MA.TrueHD.5.1-FGT 28.39GB』来源于互联网机器人自动抓取,非本站原创。 浮游电影网不对本文拥有版权,如有侵犯,请联系邮箱:fuyouu#yandex.com[#换成@]投诉。我们会在15个工作日内删除。 但烦请转载时请标明出处:“本文转载于『浮游电影网』,原文地址:https://www.fuyouu.com/21553.html

评论吧骚年!

发表你的见解   

昵称*

E-mail*(建议输入,以便收到博主回复的提示邮件)

验证码*

您可以使用eMule或eMule Mod(Windows)、aMule(Win、Linux、Mac)等软件下载eD2k链接。。
eMule收藏集(.emulecollection)文件是您选中的所有链接的列表文件。eMule可以直接下载它们。
按住SHIFT键选择可以选中多个选择框。
可用文件名和大小选择器来选择文件。
文件名选择器帮您根据文件名称或后缀来选择文件。不分大小写。
符号使用:
和:空格( )、+
不包含:-
或:|
转义:一对英文引号("");
匹配开头:^
匹配结尾:$
例如:
选中所有名称中包含有“eMule”或“0.49c”字眼,但不包含有“exe”字眼的:emule|0.49c -exe
选中所有名称的开头是“eMule”,结尾是“0.49c”的:^emule 0.49c$
选中所有名称中带有“eMule 0.49c”的(必须是“eMule 0.49c”,中间没有别的字符,不能是“eMule fake 0.49c”),需要转义:"emule 0.49c"
大小选择器帮您根据文件大小选择文件。