当前位置: 首页 >> 港台电影 >> 贱精先生[国粤配音/中文字幕].If.You.Care….2002.WEB-DL.1080p.H265.DDP.5.1.&.AAC.4Audios-HOMEWEB 10.83GB >> 正文

贱精先生[国粤配音/中文字幕].If.You.Care….2002.WEB-DL.1080p.H265.DDP.5.1.&.AAC.4Audios-HOMEWEB 10.83GB

2022年04月21日 22:44:34     电影发布:来源于网络     电影分类:港台电影     评论(0)    

贱精先生[国粤配音/中文字幕].If.You.Care….2002.WEB DL.1080p.H265.DDP.5.1.&.AAC.4Audios HOMEWEB 10.83GB  港台电影  第1张

◎译 名 贱精先生 / If You Care…

◎片 名 賤精先生

◎年 代 2002

◎产 地 中国香港

◎类 别 喜剧 / 爱情 / 奇幻

◎语 言 粤语

◎上映日期 2002-09-05

◎IMDb链接 https://www.imdb.com/title/tt0347230/

◎豆瓣评分 6.4/10 (11709人评价)

◎豆瓣链接 https://movie.douban.com/subject/1304977/

◎片 长 107分钟

◎导 演 关信辉 Adrian Kwan (id:1283395)

◎编 剧 关信辉 Adrian Kwan (id:1283395)

◎演 员 陈奕迅 Eason Chan (id:1023424)

钟欣潼 Gillian Chung (id:1005138)

卢巧音 Candy Lo (id:1028993)

葛民辉 Eric Kot (id:1017040)

许绍雄 Siu-Hung Hui (id:1274449)

李佳芯 Ali Lee (id:1332929)

梁翠珊 Ida Leung (id:1428463)

林雪 Suet Lam (id:1274279)

卓韵芝 Cheuk Wan Chi (id:1094192)

黄伟文 Wyman Wong (id:1020972)

刘以达 Tats Lau (id:1034328)

李彩桦 Rain Li (id:1042200)

邓健泓 Patrick Tang (id:1048705)

周俊伟 Lawrence Chou (id:1001466)

陈木胜 Benny Chan (id:1274293)

陈国梁 Jacky Chan (id:1308934)

赵崇邦 Sung Pong Choo (id:1280719)

邓汝好 Pat Tang Yu-Ho (id:1403989)

◎简 介

张俊辉(陈奕迅饰)是一个颇有成就的智能家居的设计师,为了能够赚到更多的钱,升上更高的职位,常常忽略了家人,除了跟公司内对手“歌师奶”(卢巧音饰)每天针锋相对以外,他更是一个自私自利,作风十分讨厌的贱精。

他小时候便有一个小情人叫阿娇(钟欣桐饰),两人在一次意外车祸中重逢了。原来阿娇完成他们儿时当消防员的梦想,以助人为乐为己任。

阿辉因为车祸得到了一种能读懂人心灵的力量,让他也感受下别人的痛苦,感同身受之后,他也对自己以前的种种行为感到内疚。

他无意中发现了公司的一个大计划,并打算卖给一间韩国公司,就算阿娇如何屡劝未果,便决定离开,阿辉奋力追回她之际,为了救人,阿辉冲进了火场……

◎获奖情况 (共2项)

第22届香港电影金像奖 (2003)

最佳原创电影歌曲(提名)

└──陈奕迅 (id:1023424)

杰出青年导演(提名)

└──关信辉 (id:1283395)

  1. ##### MediaInfo ######

  2. General

  3. Complete name : If.You.Care….2002.WEB-DL.1080p.H265.DDP.5.1.&.AAC.4Audios-HOMEWEB.mp4

  4. Format : MPEG-4

  5. Format profile : Base Media

  6. Codec ID : isom (isom/dby1/iso2/mp41)

  7. File size : 10.8 GiB

  8. Duration : 1 h 46 min

  9. Overall bit rate : 14.5 Mb/s

  10. Writing application : Lavf59.16.100


  11. Video

  12. ID : 1

  13. Format : HEVC

  14. Format/Info : High Efficiency Video Coding

  15. Format profile : [email protected]@Main

  16. Codec ID : hev1

  17. Codec ID/Info : High Efficiency Video Coding

  18. Duration : 1 h 46 min

  19. Bit rate : 13.6 Mb/s

  20. Width : 1 920 pixels

  21. Height : 1 008 pixels

  22. Display aspect ratio : 1.905

  23. Frame rate mode : Constant

  24. Frame rate : 24.000 FPS

  25. Color space : YUV

  26. Chroma subsampling : 4:2:0

  27. Bit depth : 8 bits

  28. Bits/(Pixel*Frame) : 0.293

  29. Stream size : 10.2 GiB (94%)

  30. Codec configuration box : hvcC


  31. Audio #1

  32. ID : 2

  33. Format : E-AC-3

  34. Format/Info : Enhanced AC-3

  35. Commercial name : Dolby Digital Plus

  36. Codec ID : ec-3

  37. Duration : 1 h 46 min

  38. Bit rate mode : Constant

  39. Bit rate : 256 kb/s

  40. Channel(s) : 6 channels

  41. Channel layout : L R C LFE Ls Rs

  42. Sampling rate : 48.0 kHz

  43. Frame rate : 31.250 FPS (1536 SPF)

  44. Compression mode : Lossy

  45. Stream size : 195 MiB (2%)

  46. Title : 国语

  47. Language : Chinese

  48. Service kind : Complete Main

  49. Default : Yes

  50. Alternate group : 1


  51. Audio #2

  52. ID : 3

  53. Format : AAC LC

  54. Format/Info : Advanced Audio Codec Low Complexity

  55. Codec ID : mp4a-40-2

  56. Duration : 1 h 46 min

  57. Source duration : 1 h 46 min

  58. Bit rate mode : Constant

  59. Bit rate : 192 kb/s

  60. Channel(s) : 2 channels

  61. Channel layout : L R

  62. Sampling rate : 48.0 kHz

  63. Frame rate : 46.875 FPS (1024 SPF)

  64. Compression mode : Lossy

  65. Stream size : 145 MiB (1%)

  66. Source stream size : 145 MiB (1%)

  67. Title : 国语

  68. Language : Chinese

  69. Default : No

  70. Alternate group : 1


  71. Audio #3

  72. ID : 4

  73. Format : E-AC-3

  74. Format/Info : Enhanced AC-3

  75. Commercial name : Dolby Digital Plus

  76. Codec ID : ec-3

  77. Duration : 1 h 46 min

  78. Bit rate mode : Constant

  79. Bit rate : 256 kb/s

  80. Channel(s) : 6 channels

  81. Channel layout : L R C LFE Ls Rs

  82. Sampling rate : 48.0 kHz

  83. Frame rate : 31.250 FPS (1536 SPF)

  84. Compression mode : Lossy

  85. Stream size : 195 MiB (2%)

  86. Title : 粤语

  87. Language : Chinese

  88. Service kind : Complete Main

  89. Default : No

  90. Alternate group : 1


  91. Audio #4

  92. ID : 5

  93. Format : AAC LC

  94. Format/Info : Advanced Audio Codec Low Complexity

  95. Codec ID : mp4a-40-2

  96. Duration : 1 h 46 min

  97. Source duration : 1 h 46 min

  98. Bit rate mode : Constant

  99. Bit rate : 192 kb/s

  100. Channel(s) : 2 channels

  101. Channel layout : L R

  102. Sampling rate : 48.0 kHz

  103. Frame rate : 46.875 FPS (1024 SPF)

  104. Compression mode : Lossy

  105. Stream size : 145 MiB (1%)

  106. Source stream size : 145 MiB (1%)

  107. Title : 粤语

  108. Language : Chinese

  109. Default : No

  110. Alternate group : 1




复制代码



文件下载


除非特别注明,本文『贱精先生[国粤配音/中文字幕].If.You.Care….2002.WEB-DL.1080p.H265.DDP.5.1.&.AAC.4Audios-HOMEWEB 10.83GB』来源于互联网机器人自动抓取,非本站原创。 浮游电影网不对本文拥有版权,如有侵犯,请联系邮箱:fuyouu#yandex.com[#换成@]投诉。我们会在15个工作日内删除。 但烦请转载时请标明出处:“本文转载于『浮游电影网』,原文地址:https://www.fuyouu.com/21550.html

评论吧骚年!

发表你的见解   

昵称*

E-mail*(建议输入,以便收到博主回复的提示邮件)

验证码*

您可以使用eMule或eMule Mod(Windows)、aMule(Win、Linux、Mac)等软件下载eD2k链接。。
eMule收藏集(.emulecollection)文件是您选中的所有链接的列表文件。eMule可以直接下载它们。
按住SHIFT键选择可以选中多个选择框。
可用文件名和大小选择器来选择文件。
文件名选择器帮您根据文件名称或后缀来选择文件。不分大小写。
符号使用:
和:空格( )、+
不包含:-
或:|
转义:一对英文引号("");
匹配开头:^
匹配结尾:$
例如:
选中所有名称中包含有“eMule”或“0.49c”字眼,但不包含有“exe”字眼的:emule|0.49c -exe
选中所有名称的开头是“eMule”,结尾是“0.49c”的:^emule 0.49c$
选中所有名称中带有“eMule 0.49c”的(必须是“eMule 0.49c”,中间没有别的字符,不能是“eMule fake 0.49c”),需要转义:"emule 0.49c"
大小选择器帮您根据文件大小选择文件。