当前位置: 首页 >> 港台电影 >> 鬼打鬼[国粤多音轨/简繁字幕].Encounter.of.the.Spooky.Kind.1980.1080p.BluRay.DTS.2Audio.x265-10bit-ENTHD 8.94GB >> 正文

鬼打鬼[国粤多音轨/简繁字幕].Encounter.of.the.Spooky.Kind.1980.1080p.BluRay.DTS.2Audio.x265-10bit-ENTHD 8.94GB

2022年04月21日 22:43:33     电影发布:来源于网络     电影分类:港台电影     评论(0)    

鬼打鬼[国粤多音轨/简繁字幕].Encounter.of.the.Spooky.Kind.1980.1080p.BluRay.DTS.2Audio.x265 10bit ENTHD 8.94GB  港台电影  第1张

◎译 名 鬼打鬼 / Encounter of the Spooky Kind

◎年 代 1980

◎产 地 中国香港

◎类 别 喜剧 / 动作 / 恐怖 / 奇幻

◎语 言 粤语

◎上映日期 1980-12-24

◎IMDb链接 https://www.imdb.com/title/tt0080827/

◎豆瓣评分 7.6/10 (24847人评价)

◎豆瓣链接 https://movie.douban.com/subject/1422908/

◎片 长 102 分钟

◎导 演 洪金宝 Sammo Hung Kam-Bo (id:1055887)

◎编 剧 洪金宝 Sammo Hung Kam-Bo (id:1055887)

黄鹰 Ying Wong (id:1316778)

黄鹰 Ying Huang (id:1042798)

◎演 员 洪金宝 Sammo Hung Kam-Bo (id:1055887)

钟发 Fat Chung (id:1314531)

林正英 Ching-Ying Lam (id:1016823)

午马 Wu Ma (id:1054282)

杜少明 Siu-Ming To (id:1360414)

黄虾 Ha Huang (id:1374071)

太保 Po Tai (id:1312993)

刘秋生 Chau Sang Lau (id:1373863)

何柏光 Pak-Kwong Ho (id:1350540)

许莹英 Ying-Ying Hui (id:1314276)

彭润祥 Yun-chiang Peng (id:1431212)

梁雪薇 Suet-Mei Leung (id:1459029)

陈龙 Peter Chan Lung (id:1321791)

冯敬文 Ging Man Fung (id:1341397)

陈会毅 Billy Chan (id:1280414)

元彪 Biao Yuen (id:1163752)

元武 Wu Yuan (id:1344878)

邹文怀 Raymond Chow (id:1016883)

陈佩华 Jessica Chan Pooi-Wa (id:1372898)

林正英 Ching-Ying Lam (id:1016823)

周少龙 Shao Lung Chou (id:1344862)

◎简 介

车夫张大胆(洪金宝 饰)自称胆识过人,神鬼不怕,经常与别人打赌练胆。某天他提前收工,发现老婆(梁雪薇 饰)与别人私通,而对方竟是大胆的雇主谭老板(黄蝦 饰)。谭老板为掩盖真相,派师爷(太保 饰)寻茅山道士钱真人(陈龙 饰)设坛杀害大胆。

钱真人设下圈套,借打赌之名将张大胆诱至马家祠堂,施法唤出僵尸追杀大胆。钱之师弟许真人(钟发 饰)不满师兄图财害命、伤天害理恶举。他暗中协助大胆,使之最终逃过此劫。然而谭老板祸心不死,一计不成,再施一计,非置大胆于死地不可……

  1. ##### MediaInfo ######

  2. General

  3. Unique ID : 133365814841050010596069480637818842321 (0x64555256BC9D6ABEF61F3A2B2105ACD1)

  4. Complete name : Encounter.of.the.Spooky.Kind.1980.1080p.BluRay.DTS.2Audio.x265-10bit-HDS.mkv

  5. Format : Matroska

  6. Format version : Version 4

  7. File size : 8.94 GiB

  8. Duration : 1 h 43 min

  9. Overall bit rate : 12.4 Mb/s

  10. Movie name : Encounter of the Spooky Kind 1980 1080p BluRay DTS 2Audio x265-10bit-HDS

  11. Encoded date : UTC 2022-04-20 11:29:43

  12. Writing application : mkvmerge v67.0.0 ('Under Stars') 64-bit

  13. Writing library : libebml v1.4.2 + libmatroska v1.6.4

  14. Video

  15. ID : 1

  16. Format : HEVC

  17. Format/Info : High Efficiency Video Coding

  18. Format profile : Main [email protected]@High

  19. Codec ID : V_MPEGH/ISO/HEVC

  20. Duration : 1 h 43 min

  21. Bit rate : 10.2 Mb/s

  22. Width : 1 920 pixels

  23. Height : 804 pixels

  24. Display aspect ratio : 2.40:1

  25. Frame rate mode : Constant

  26. Frame rate : 23.976 (24000/1001/53354) FPS

  27. Color space : YUV

  28. Chroma subsampling : 4:2:0

  29. Bit depth : 10 bits

  30. Bits/(Pixel*Frame) : 0.276

  31. Stream size : 7.37 GiB (82%)

  32. Title : @HDSky

  33. Writing library : x265 - H.265/HEVC codec

  34. Default : Yes

  35. Forced : No

  36. Audio #1

  37. ID : 2

  38. Format : DTS

  39. Format/Info : Digital Theater Systems

  40. Codec ID : A_DTS

  41. Duration : 1 h 43 min

  42. Bit rate mode : Constant

  43. Bit rate : 1 509 kb/s

  44. Channel(s) : 6 channels

  45. Channel layout : C L R Ls Rs LFE

  46. Sampling rate : 48.0 kHz

  47. Frame rate : 93.750 FPS (512 SPF)

  48. Bit depth : 16 bits

  49. Compression mode : Lossy

  50. Stream size : 1.09 GiB (12%)

  51. Title : Cantonese

  52. Language : Chinese

  53. Default : Yes

  54. Forced : No

  55. Audio #2

  56. ID : 3

  57. Format : AC-3

  58. Format/Info : Audio Coding 3

  59. Commercial name : Dolby Digital

  60. Codec ID : A_AC3

  61. Duration : 1 h 43 min

  62. Bit rate mode : Constant

  63. Bit rate : 640 kb/s

  64. Channel(s) : 6 channels

  65. Channel layout : L R C LFE Ls Rs

  66. Sampling rate : 48.0 kHz

  67. Frame rate : 31.250 FPS (1536 SPF)

  68. Compression mode : Lossy

  69. Stream size : 472 MiB (5%)

  70. Title : Mandarin

  71. Language : Chinese

  72. Service kind : Complete Main

  73. Default : Yes

  74. Forced : No

  75. Text #1

  76. ID : 4

  77. Format : PGS

  78. Muxing mode : zlib

  79. Codec ID : S_HDMV/PGS

  80. Codec ID/Info : Picture based subtitle format used on BDs/HD-DVDs

  81. Duration : 1 h 41 min

  82. Bit rate : 26.5 kb/s

  83. Count of elements : 1546

  84. Stream size : 19.3 MiB (0%)

  85. Title : CHT

  86. Language : Chinese

  87. Default : Yes

  88. Forced : No

  89. Text #2

  90. ID : 5

  91. Format : PGS

  92. Muxing mode : zlib

  93. Codec ID : S_HDMV/PGS

  94. Codec ID/Info : Picture based subtitle format used on BDs/HD-DVDs

  95. Duration : 1 h 42 min

  96. Bit rate : 17.6 kb/s

  97. Count of elements : 2009

  98. Stream size : 12.9 MiB (0%)

  99. Title : CHS

  100. Language : Chinese

  101. Default : Yes

  102. Forced : No

  103. Text #3

  104. ID : 6

  105. Format : PGS

  106. Muxing mode : zlib

  107. Codec ID : S_HDMV/PGS

  108. Codec ID/Info : Picture based subtitle format used on BDs/HD-DVDs

  109. Duration : 1 h 42 min

  110. Bit rate : 20.2 kb/s

  111. Count of elements : 1550

  112. Stream size : 14.9 MiB (0%)

  113. Title : CHS

  114. Language : Chinese

  115. Default : Yes

  116. Forced : No

  117. Menu

  118. 00:00:00.000 : en:第 01 章

  119. 00:05:13.146 : en:第 02 章

  120. 00:12:28.498 : en:第 03 章

  121. 00:15:41.607 : en:第 04 章

  122. 00:22:07.952 : en:第 05 章

  123. 00:27:07.793 : en:第 06 章

  124. 00:29:58.630 : en:第 07 章

  125. 00:34:38.660 : en:第 08 章

  126. 00:39:58.479 : en:第 09 章

  127. 00:44:37.800 : en:第 10 章

  128. 00:52:07.583 : en:第 11 章

  129. 00:56:19.376 : en:第 12 章

  130. 00:59:25.145 : en:第 13 章

  131. 01:05:53.616 : en:第 14 章

  132. 01:10:20.550 : en:第 15 章

  133. 01:16:14.862 : en:第 16 章

  134. 01:20:19.815 : en:第 17 章

  135. 01:25:30.459 : en:第 18 章

  136. 01:31:49.087 : en:第 19 章

  137. 01:35:55.291 : en:第 20 章


复制代码



文件下载


除非特别注明,本文『鬼打鬼[国粤多音轨/简繁字幕].Encounter.of.the.Spooky.Kind.1980.1080p.BluRay.DTS.2Audio.x265-10bit-ENTHD 8.94GB』来源于互联网机器人自动抓取,非本站原创。 浮游电影网不对本文拥有版权,如有侵犯,请联系邮箱:fuyouu#yandex.com[#换成@]投诉。我们会在15个工作日内删除。 但烦请转载时请标明出处:“本文转载于『浮游电影网』,原文地址:https://www.fuyouu.com/21549.html

评论吧骚年!

发表你的见解   

昵称*

E-mail*(建议输入,以便收到博主回复的提示邮件)

验证码*

您可以使用eMule或eMule Mod(Windows)、aMule(Win、Linux、Mac)等软件下载eD2k链接。。
eMule收藏集(.emulecollection)文件是您选中的所有链接的列表文件。eMule可以直接下载它们。
按住SHIFT键选择可以选中多个选择框。
可用文件名和大小选择器来选择文件。
文件名选择器帮您根据文件名称或后缀来选择文件。不分大小写。
符号使用:
和:空格( )、+
不包含:-
或:|
转义:一对英文引号("");
匹配开头:^
匹配结尾:$
例如:
选中所有名称中包含有“eMule”或“0.49c”字眼,但不包含有“exe”字眼的:emule|0.49c -exe
选中所有名称的开头是“eMule”,结尾是“0.49c”的:^emule 0.49c$
选中所有名称中带有“eMule 0.49c”的(必须是“eMule 0.49c”,中间没有别的字符,不能是“eMule fake 0.49c”),需要转义:"emule 0.49c"
大小选择器帮您根据文件大小选择文件。