当前位置: 首页 >> 海外电影 >> 爱神[国语音轨/简英字幕].Eros.2004.1080p.BluRay.DTS.x264-ENTHD 11.66GB >> 正文

爱神[国语音轨/简英字幕].Eros.2004.1080p.BluRay.DTS.x264-ENTHD 11.66GB

2022年04月21日 22:42:38     电影发布:来源于网络     电影分类:海外电影     评论(0)    

爱神[国语音轨/简英字幕].Eros.2004.1080p.BluRay.DTS.x264 ENTHD 11.66GB  海外电影  第1张

◎译 名 爱神 / 爱神之手 / Eros

◎片 名 Eros

◎年 代 2004

◎产 地 意大利 / 中国香港 / 美国 / 法国 / 卢森堡 / 英国

◎类 别 剧情 / 爱情 / 情色

◎语 言 汉语普通话 / 意大利语 / 英语

◎上映日期 2005-05-12(中国香港) / 2004-09-10(威尼斯电影节) / 2004-12-03(意大利)

◎IMDb链接 https://www.imdb.com/title/tt0343663/

◎豆瓣评分 7.7/10 (47238人评价)

◎豆瓣链接 https://movie.douban.com/subject/1309029/

◎片 长 104分钟

◎导 演 王家卫 Kar Wai Wong (id:1041024)

米开朗基罗·安东尼奥尼 Michelangelo Antonioni (id:1022002)

史蒂文·索德伯格 Steven Soderbergh (id:1054400)

◎编 剧 王家卫 Kar Wai Wong (id:1041024)

米开朗基罗·安东尼奥尼 Michelangelo Antonioni (id:1022002)

托尼诺·格拉 Tonino Guerra (id:1032838)

史蒂文·索德伯格 Steven Soderbergh (id:1054400)

◎演 员 巩俐 Li Gong (id:1035641)

张震 Chen Chang (id:1077991)

克里斯托弗·巴克霍尔兹 Christopher Buchholz (id:1007197)

路易莎·拉涅瑞 Luisa Ranieri (id:1036937)

小罗伯特·唐尼 Robert Downey Jr. (id:1016681)

艾伦·阿金 Alan Arkin (id:1002730)

艾利·凯特斯 Ele Keats (id:1112381)

田丰 Feng Tien (id:1019621)

恩丽卡·安东尼奥尼 Enrica Antonioni (id:1323853)

王家卫 Kar Wai Wong (id:1041024)

Marcantonio Borghese Marcantonio Borghese (id:1016390)

Jacques Bar Jacques Bar (id:1052538)

彭绮华 Jacky Pang Yee Wah (id:1313613)

陈惠中 Wai-Chung Chan (id:1280413)

皮尔·拉本 Peer Raben (id:1012814)

姚敏 Min Yao (id:1044543)

恩丽卡·安东尼奥尼 Enrica Antonioni (id:1323853)

陈歌辛 Gexin Chen (id:1344624)

史蒂文·索德伯格 Steven Soderbergh (id:1054400)

杜可风 Christopher Doyle (id:1045151)

马克·彭特克沃 Marco Pontecorvo (id:1042102)

史蒂文·索德伯格 Steven Soderbergh (id:1054400)

菲利普·墨西纳 Philip Messina (id:1005484)

米兰拉·坎农诺 Milena Canonero (id:1279999)

关莉娜 Lee-na Kwan (id:1289154)

多恩·休布勒 Dorne Huebler (id:1052562)

Massimiliano Rocchetti Massimiliano Rocchetti (id:1212871)

扎卡里·科尔 Zachary Cole (id:1169413)

杜笃之 Du-Che Tu (id:1275159)

陈宝旭 Pao-hsu Chen (id:1360069)

吴莺音 (id:1324640)

龚秋霞 Qiuxia Gong (id:1039986)

姚莉 Li Yao (id:1319460)

陈宝骏 Po-Chun Chan (id:1426242)

◎简 介

该片是一部三段式主题(爱和性)电影,由米开朗基罗?安东尼奥尼(《危险临界点》)、史蒂文?索德伯格(《平衡》)和王家卫(《手》)三位导演联合执导。

《手》讲的是1960年代的香港,年轻的裁缝(张震)多年不计回报地爱着交际花华小姐(巩俐)的故事,影像华丽,充满了质感又略带伤感。《平衡》的故事发生在1950年代的纽约,广告人尼克?彭罗斯(罗伯特?唐尼)总是被春梦困扰,只得向他的心理医生珀尔(阿兰?阿金)求助,基调虽荒谬反常,却也可看成颇有自嘲意味的幽默喜剧。《危险临界线》则仍是安东尼奥尼一向关注的现代社会中的男女关系主题,哲学味道浓烈。

◎获奖情况 (共1项)

第42届台北金马影展 (2005)

金马奖 最佳创作短片(提名)

└──王家卫 (id:1041024)

  1. ##### MediaInfo ######

  2. General

  3. Unique ID : 158809564262100204151178726884059819573 (0x77799C09F1E37597B8398683EBAEAE35)

  4. Complete name : Eros.2004.1080p.BluRay.DTS.x264-HDS.mkv

  5. Format : Matroska

  6. Format version : Version 4

  7. File size : 11.7 GiB

  8. Duration : 1 h 48 min

  9. Overall bit rate : 15.3 Mb/s

  10. Movie name : Eros 2004 1080p BluRay DTS x264-HDS

  11. Encoded date : UTC 2022-04-21 02:06:02

  12. Writing application : mkvmerge v67.0.0 ('Under Stars') 64-bit

  13. Writing library : libebml v1.4.2 + libmatroska v1.6.4

  14. Video

  15. ID : 1

  16. Format : AVC

  17. Format/Info : Advanced Video Codec

  18. Format profile : [email protected]

  19. Format settings : CABAC / 4 Ref Frames

  20. Format settings, CABAC : Yes

  21. Format settings, Reference frames : 4 frames

  22. Codec ID : V_MPEG4/ISO/AVC

  23. Duration : 1 h 48 min

  24. Bit rate : 13.8 Mb/s

  25. Width : 1 920 pixels

  26. Height : 1 080 pixels

  27. Display aspect ratio : 16:9

  28. Frame rate mode : Constant

  29. Frame rate : 23.976 (24000/1001/53354) FPS

  30. Color space : YUV

  31. Chroma subsampling : 4:2:0

  32. Bit depth : 8 bits

  33. Scan type : Progressive

  34. Bits/(Pixel*Frame) : 0.278

  35. Stream size : 10.5 GiB (90%)

  36. Title : @HDSky

  37. Default : Yes

  38. Forced : No

  39. Audio

  40. ID : 2

  41. Format : DTS

  42. Format/Info : Digital Theater Systems

  43. Codec ID : A_DTS

  44. Duration : 1 h 48 min

  45. Bit rate mode : Constant

  46. Bit rate : 1 509 kb/s

  47. Channel(s) : 6 channels

  48. Channel layout : C L R Ls Rs LFE

  49. Sampling rate : 48.0 kHz

  50. Frame rate : 93.750 FPS (512 SPF)

  51. Bit depth : 24 bits

  52. Compression mode : Lossy

  53. Stream size : 1.15 GiB (10%)

  54. Title : Mandarin

  55. Language : Chinese

  56. Default : Yes

  57. Forced : No

  58. Text #1

  59. ID : 3

  60. Format : PGS

  61. Muxing mode : zlib

  62. Codec ID : S_HDMV/PGS

  63. Codec ID/Info : Picture based subtitle format used on BDs/HD-DVDs

  64. Duration : 1 h 34 min

  65. Bit rate : 22.5 kb/s

  66. Count of elements : 1800

  67. Stream size : 15.1 MiB (0%)

  68. Title : ENG

  69. Language : English

  70. Default : Yes

  71. Forced : No

  72. Text #2

  73. ID : 4

  74. Format : PGS

  75. Muxing mode : zlib

  76. Codec ID : S_HDMV/PGS

  77. Codec ID/Info : Picture based subtitle format used on BDs/HD-DVDs

  78. Duration : 1 h 41 min

  79. Bit rate : 14.5 kb/s

  80. Count of elements : 1556

  81. Stream size : 10.5 MiB (0%)

  82. Title : CHS

  83. Language : Chinese

  84. Default : Yes

  85. Forced : No

  86. Menu

  87. 00:00:00.000 : en:第 01 章

  88. 00:24:47.069 : en:第 02 章

  89. 00:42:59.911 : en:第 03 章

  90. 00:52:56.090 : en:第 04 章

  91. 01:09:39.675 : en:第 05 章

  92. 01:26:30.102 : en:第 06 章


复制代码



文件下载


除非特别注明,本文『爱神[国语音轨/简英字幕].Eros.2004.1080p.BluRay.DTS.x264-ENTHD 11.66GB』来源于互联网机器人自动抓取,非本站原创。 浮游电影网不对本文拥有版权,如有侵犯,请联系邮箱:fuyouu#yandex.com[#换成@]投诉。我们会在15个工作日内删除。 但烦请转载时请标明出处:“本文转载于『浮游电影网』,原文地址:https://www.fuyouu.com/21548.html

评论吧骚年!

发表你的见解   

昵称*

E-mail*(建议输入,以便收到博主回复的提示邮件)

验证码*

您可以使用eMule或eMule Mod(Windows)、aMule(Win、Linux、Mac)等软件下载eD2k链接。。
eMule收藏集(.emulecollection)文件是您选中的所有链接的列表文件。eMule可以直接下载它们。
按住SHIFT键选择可以选中多个选择框。
可用文件名和大小选择器来选择文件。
文件名选择器帮您根据文件名称或后缀来选择文件。不分大小写。
符号使用:
和:空格( )、+
不包含:-
或:|
转义:一对英文引号("");
匹配开头:^
匹配结尾:$
例如:
选中所有名称中包含有“eMule”或“0.49c”字眼,但不包含有“exe”字眼的:emule|0.49c -exe
选中所有名称的开头是“eMule”,结尾是“0.49c”的:^emule 0.49c$
选中所有名称中带有“eMule 0.49c”的(必须是“eMule 0.49c”,中间没有别的字符,不能是“eMule fake 0.49c”),需要转义:"emule 0.49c"
大小选择器帮您根据文件大小选择文件。