当前位置: 首页 >> 欧美电影 >> 失宠于上帝的孩子们[简繁字幕].Children.of.a.Lesser.God.1986.BluRay.1080P.DD.2.0.x265.10bit-ALT 7.66GB >> 正文

失宠于上帝的孩子们[简繁字幕].Children.of.a.Lesser.God.1986.BluRay.1080P.DD.2.0.x265.10bit-ALT 7.66GB

2022年04月21日 22:38:49     电影发布:来源于网络     电影分类:欧美电影     评论(0)    

失宠于上帝的孩子们[简繁字幕].Children.of.a.Lesser.God.1986.BluRay.1080P.DD.2.0.x265.10bit ALT 7.66GB  欧美电影  第1张

◎译 名 失宠于上帝的孩子们 / 悲怜上帝的女儿(台) / 失宠于上帝的孩子 / 无言的爱

◎片 名 Children of a Lesser God

◎年 代 1986

◎产 地 美国

◎类 别 剧情 / 爱情

◎语 言 英语 / 美国手语

◎上映日期 1986-09-13(多伦多电影节)

◎IMDb链接 https://www.imdb.com/title/tt0090830/

◎豆瓣评分 7.8/10 (1148人评价)

◎豆瓣链接 https://movie.douban.com/subject/1300422/

◎片 长 119 分钟

◎导 演 兰达·海恩斯 Randa Haines (id:1032742)

◎编 剧 马克·麦道夫 Mark Medoff (id:1033307)

海茨帕·安德森 Hesper Anderson (id:1024175)

詹姆斯·卡林顿 James Carrington (id:1331773)

◎演 员 威廉·赫特 William Hurt (id:1031849)

玛丽·玛特琳 Marlee Matlin (id:1049675)

派珀·劳瑞 Piper Laurie (id:1007044)

菲利普·博斯科 Philip Bosco (id:1062841)

琳恩·玛丽·斯图尔特 Lynne Marie Stewart (id:1150122)

Richard Kendall Richard Kendall (id:1105186)

E. Katherine Kerr E. Katherine Kerr (id:1104300)

尼古拉斯·格斯特 Nicholas Guest (id:1100199)

Bob Hiltermann Bob Hiltermann (id:1093419)

杰克·布莱辛 Jack Blessing (id:1065621)

Georgia Ann Cline Georgia Ann Cline (id:1067797)

Linda Bove Linda Bove (id:1070461)

William D. Byrd William D. Byrd (id:1075221)

Lois Clowater Lois Clowater (id:1076631)

María Cellario María Cellario (id:1077027)

丽·弗伦奇 Leigh French (id:1079537)

伯特·休格曼 Burt Sugarman (id:1014434)

帕特里克·J·帕尔默 Patrick J. Palmer (id:1017032)

迈克尔·孔韦尔蒂诺 Michael Convertino (id:1276590)

约翰·希尔 John Seale (id:1055367)

丽莎·弗拉特曼 Lisa Fruchtman (id:1284267)

Gretchen Rennell Gretchen Rennell (id:1295462)

Barbra Matis Barbra Matis (id:1291276)

吉恩·卡拉汉 Gene Callahan (id:1042988)

蕾妮·艾珀尔 Renée April (id:1277332)

Ann Brodie Ann Brodie (id:1279356)

保罗·勒布朗 Paul LeBlanc (id:1289615)

帕特里克·J·帕尔默 Patrick J. Palmer (id:1017032)

◎简 介

故事发生在基特里奇总督学校中,詹姆斯(威廉·赫特 William Hurt 饰)是在这里任教的教师。凭借着自己特立独行的教学手段,詹姆斯很快就获得了学生的好感和同事的信任,对于在这里的平静生活,詹姆斯本人亦十分满意。

萨拉(玛丽·玛特琳 Marlee Matlin 饰)曾经是这所学校的学生,毕业后,她几经辗转,回到了此地当起了清洁工。因为生理的残疾,萨拉个性孤僻,但这反而吸引了詹姆斯的注意,他主动接近莉兹,希望莉兹能够重拾自信继续学习深造。随着时间的推移,莉兹对于詹姆斯的态度从一开始的及其抗拒转而变成了略有好感,她的性格开始慢慢转变,和詹姆斯的距离也原来越近。可就在这时,新的问题又出现了。

◎获奖情况 (共7项)

第59届奥斯卡金像奖 (1987)

最佳影片(提名)

最佳男主角(提名)

└──威廉·赫特 (id:1031849)

最佳女主角

└──玛丽·玛特琳 (id:1049675)

最佳女配角(提名)

└──派珀·劳瑞 (id:1007044)

最佳改编剧本(提名)

第37届柏林国际电影节 (1987)

金熊奖 最佳影片(提名)

└──兰达·海恩斯 (id:1032742)

银熊奖 杰出艺术成就奖(提名)

  1. ##### MediaInfo ######

  2. General

  3. Unique ID : 97175020364486858982786733566149857342 (0x491B3A68793D2DBBD0DEC13F5B15103E)

  4. Complete name : Children.of.a.Lesser.God.1986.BluRay.1080P.DD.2.0.x265.10bit-BeiTai.mkv

  5. Format : Matroska

  6. Format version : Version 4

  7. File size : 7.66 GiB

  8. Duration : 1 h 58 min

  9. Overall bit rate : 9 218 kb/s

  10. Encoded date : UTC 2022-04-21 02:21:34

  11. Writing application : mkvmerge v49.0.0 ('Sick Of Losing Soulmates') 64-bit

  12. Writing library : libebml v1.4.0 + libmatroska v1.6.1

  13. Video

  14. ID : 1

  15. Format : HEVC

  16. Format/Info : High Efficiency Video Coding

  17. Format profile : Main [email protected]@High

  18. Codec ID : V_MPEGH/ISO/HEVC

  19. Duration : 1 h 58 min

  20. Bit rate : 8 740 kb/s

  21. Width : 1 920 pixels

  22. Height : 1 080 pixels

  23. Display aspect ratio : 16:9

  24. Frame rate mode : Constant

  25. Frame rate : 23.976 (24000/1001/53354) FPS

  26. Color space : YUV

  27. Chroma subsampling : 4:2:0

  28. Bit depth : 10 bits

  29. Bits/(Pixel*Frame) : 0.176

  30. Stream size : 7.26 GiB (95%)

  31. Title : HEVC, [email protected]@High, 24/1.001 fps

  32. Writing library : x265 3.5+36-1f2c8da77:[Windows][GCC 11.2.0][64 bit] 10bit

  33. Encoding settings : cpuid=533541111039 / frame-threads=4 / numa-pools=16 / wpp / pmode / pme / no-psnr / no-ssim / log-level=2 / input-csp=1 / input-res=1920x1080 / interlace=0 / total-frames=171170 / level-idc=51 / high-tier=1 / uhd-bd=0 / ref=5 / no-allow-non-conformance / no-repeat-headers / annexb / no-aud / no-eob / no-eos / no-hrd / info / hash=0 / no-temporal-layers / open-gop / min-keyint=24 / keyint=240 / gop-lookahead=0 / bframes=6 / b-adapt=2 / b-pyramid / bframe-bias=0 / rc-lookahead=40 / lookahead-slices=0 / NTMzNTQ=uuDQuD2mJt9fsCf / scenecut=40 / no-hist-scenecut / radl=0 / no-splice / no-intra-refresh / ctu=32 / min-cu-size=8 / no-rect / no-amp / max-tu-size=32 / tu-inter-depth=3 / tu-intra-depth=3 / limit-tu=4 / rdoq-level=2 / dynamic-rd=0.00 / no-ssim-rd / signhide / no-tskip / nr-intra=0 / nr-inter=0 / no-constrained-intra / no-strong-intra-smoothing / max-merge=4 / limit-refs=1 / limit-modes / me=3 / subme=4 / merange=25 / temporal-mvp / no-frame-dup / no-hme / weightp / weightb / no-analyze-src-pics / deblock=-3:-3 / no-sao / no-sao-non-deblock / rd=6 / selective-sao=0 / no-early-skip / rskip / no-fast-intra / no-tskip-fast / no-cu-lossless / b-intra / no-splitrd-skip / rdpenalty=0 / psy-rd=2.00 / psy-rdoq=1.00 / no-rd-refine / no-lossless / cbqpoffs=0 / crqpoffs=0 / rc=crf / crf=20.0 / qcomp=0.65 / qpstep=4 / stats-write=0 / stats-read=0 / vbv-maxrate=80000 / vbv-bufsize=80000 / vbv-init=0.9 / min-vbv-fullness=50.0 / max-vbv-fullness=80.0 / crf-max=0.0 / crf-min=0.0 / ipratio=1.40 / pbratio=1.30 / aq-mode=2 / aq-strength=0.85 / cutree / zone-count=0 / no-strict-cbr / qg-size=32 / no-rc-grain / qpmax=69 / qpmin=0 / no-const-vbv / sar=1 / overscan=0 / videoformat=5 / range=0 / colorprim=1 / transfer=1 / colormatrix=1 / chromaloc=0 / display-window=0 / cll=0,0 / min-luma=0 / max-luma=1023 / log2-max-poc-lsb=8 / vui-timing-info / vui-hrd-info / slices=1 / no-opt-qp-pps / no-opt-ref-list-length-pps / no-multi-pass-opt-rps / scenecut-bias=0.05 / hist-threshold=0.03 / no-opt-cu-delta-qp / no-aq-motion / no-hdr10 / no-hdr10-opt / no-dhdr10-opt / no-idr-recovery-sei / analysis-reuse-level=0 / analysis-save-reuse-level=0 / analysis-load-reuse-level=0 / scale-factor=0 / refine-intra=0 / refine-inter=0 / refine-mv=1 / refine-ctu-distortion=0 / no-limit-sao / ctu-info=0 / no-lowpass-dct / refine-analysis-type=0 / copy-pic=1 / max-ausize-factor=1.0 / no-dynamic-refine / no-single-sei / no-hevc-aq / no-svt / no-field / qp-adaptation-range=1.00 / scenecut-aware-qp=0conformance-window-offsets / right=0 / bottom=0 / NTMzNTQ= / decoder-max-rate=0 / no-vbv-live-multi-pass

  34. Language : English

  35. Default : Yes

  36. Forced : No

  37. Color range : Limited

  38. Color primaries : BT.709

  39. Transfer characteristics : BT.709

  40. Matrix coefficients : BT.709

  41. Audio

  42. ID : 2

  43. Format : AC-3

  44. Format/Info : Audio Coding 3

  45. Commercial name : Dolby Digital

  46. Codec ID : A_AC3

  47. Duration : 1 h 58 min

  48. Bit rate mode : Constant

  49. Bit rate : 448 kb/s

  50. Channel(s) : 2 channels

  51. Channel layout : L R

  52. Sampling rate : 48.0 kHz

  53. Frame rate : 31.250 FPS (1536 SPF)

  54. Compression mode : Lossy

  55. Stream size : 381 MiB (5%)

  56. Title : English Dolby Digital Audio 2.0 @ 448 kbps

  57. Language : English

  58. Service kind : Complete Main

  59. Default : Yes

  60. Forced : No

  61. Text #1

  62. ID : 3

  63. Format : PGS

  64. Codec ID : S_HDMV/PGS

  65. Codec ID/Info : Picture based subtitle format used on BDs/HD-DVDs

  66. Duration : 1 h 49 min

  67. Bit rate : 15.1 kb/s

  68. Count of elements : 2634

  69. Stream size : 11.8 MiB (0%)

  70. Title : Chs/SUP 简体

  71. Language : Chinese

  72. Default : Yes

  73. Forced : No

  74. Text #2

  75. ID : 4

  76. Format : PGS

  77. Codec ID : S_HDMV/PGS

  78. Codec ID/Info : Picture based subtitle format used on BDs/HD-DVDs

  79. Duration : 1 h 49 min

  80. Bit rate : 15.5 kb/s

  81. Count of elements : 2634

  82. Stream size : 12.1 MiB (0%)

  83. Title : Cht/SUP 繁體

  84. Language : Chinese

  85. Default : No

  86. Forced : No


文件下载


除非特别注明,本文『失宠于上帝的孩子们[简繁字幕].Children.of.a.Lesser.God.1986.BluRay.1080P.DD.2.0.x265.10bit-ALT 7.66GB』来源于互联网机器人自动抓取,非本站原创。 浮游电影网不对本文拥有版权,如有侵犯,请联系邮箱:fuyouu#yandex.com[#换成@]投诉。我们会在15个工作日内删除。 但烦请转载时请标明出处:“本文转载于『浮游电影网』,原文地址:https://www.fuyouu.com/21546.html

评论吧骚年!

发表你的见解   

昵称*

E-mail*(建议输入,以便收到博主回复的提示邮件)

验证码*

您可以使用eMule或eMule Mod(Windows)、aMule(Win、Linux、Mac)等软件下载eD2k链接。。
eMule收藏集(.emulecollection)文件是您选中的所有链接的列表文件。eMule可以直接下载它们。
按住SHIFT键选择可以选中多个选择框。
可用文件名和大小选择器来选择文件。
文件名选择器帮您根据文件名称或后缀来选择文件。不分大小写。
符号使用:
和:空格( )、+
不包含:-
或:|
转义:一对英文引号("");
匹配开头:^
匹配结尾:$
例如:
选中所有名称中包含有“eMule”或“0.49c”字眼,但不包含有“exe”字眼的:emule|0.49c -exe
选中所有名称的开头是“eMule”,结尾是“0.49c”的:^emule 0.49c$
选中所有名称中带有“eMule 0.49c”的(必须是“eMule 0.49c”,中间没有别的字符,不能是“eMule fake 0.49c”),需要转义:"emule 0.49c"
大小选择器帮您根据文件大小选择文件。