当前位置: 首页 >> 港台电影 >> 精灵变[国语配音/中文字幕].Banana.Spirit.1992.WEB-DL.1080p.H264.AAC-HOMEWEB 2.04GB >> 正文

精灵变[国语配音/中文字幕].Banana.Spirit.1992.WEB-DL.1080p.H264.AAC-HOMEWEB 2.04GB

2022年04月21日 22:32:43     电影发布:来源于网络     电影分类:港台电影     评论(0)    

精灵变[国语配音/中文字幕].Banana.Spirit.1992.WEB DL.1080p.H264.AAC HOMEWEB 2.04GB  港台电影  第1张

◎译 名 精灵变 / Banana Spirit

◎片 名 精靈變

◎年 代 1992

◎产 地 中国香港

◎类 别 喜剧 / 惊悚 / 奇幻

◎语 言 粤语

◎上映日期 1992

◎IMDb链接 https://www.imdb.com/title/tt0277053/

◎豆瓣评分 6.6/10 (2484人评价)

◎豆瓣链接 https://movie.douban.com/subject/2130988/

◎片 长 95 分钟

◎演 员 林正英 Ching-Ying Lam (id:1016823)

吴镇宇 Francis Ng (id:1037098)

吴耀汉 Richard Ng (id:1037408)

邹兆龙 Collin Chou (id:1022821)

傅丽人 Josephine Foo Lai-Yan (id:1359948)

周锦祥 Gam Cheung Chow (id:1315803)

卢坚 Kin Lo (id:1362279)

胡美仪 Amy Hu (id:1329606)

◎简 介

阿直(吴镇宇 饰)和阿车(倪星 饰)是一对好朋友。阿直的职业是殡仪馆的化妆师,因职业的关系从未结交过一个女朋友;阿车在叔叔陈师傅(林正英 饰)的跌打馆里帮忙,本身有点儿小道行,却是个不务正业、玩乐调皮的家伙。阿车欠下黑社会老大贵利雄(黃光亮 饰)一笔钱,为筹措资金绞尽脑汁。偶然机会两人与殡仪馆老板(吴耀汉 饰)打赌,在农历十五月圆之夜引出传说中的芭蕉精。为措资金,二人铤而走险。结果引出的芭蕉精化身为阿直所迷恋的模特Iris(傅丽人 饰),但他必须在初一将其送回,否则一尸两命,芭蕉精化做青烟,Iris也会魂归黄泉……

  1. ##### MediaInfo ######

  2. General

  3. Complete name : Banana Spirit 1992 WEB-DL 1080p H264 AAC-Dave.mp4

  4. Format : MPEG-4

  5. Format profile : Base Media

  6. Codec ID : isom (isom/iso2/avc1/mp41)

  7. File size : 2.04 GiB

  8. Duration : 1 h 27 min

  9. Overall bit rate mode : Variable

  10. Overall bit rate : 3 329 kb/s

  11. Writing application : Lavf59.16.100

  12. Video

  13. ID : 1

  14. Format : AVC

  15. Format/Info : Advanced Video Codec

  16. Format profile : [email protected]

  17. Format settings : CABAC / 4 Ref Frames

  18. Format settings, CABAC : Yes

  19. Format settings, Reference frames : 4 frames

  20. Codec ID : avc1

  21. Codec ID/Info : Advanced Video Coding

  22. Duration : 1 h 27 min

  23. Source duration : 1 h 27 min

  24. Bit rate : 2 932 kb/s

  25. Maximum bit rate : 3 070 kb/s

  26. Width : 1 920 pixels

  27. Height : 1 080 pixels

  28. Display aspect ratio : 16:9

  29. Frame rate mode : Constant

  30. Frame rate : 25.000 FPS

  31. Color space : YUV

  32. Chroma subsampling : 4:2:0

  33. Bit depth : 8 bits

  34. Scan type : Progressive

  35. Bits/(Pixel*Frame) : 0.057

  36. Stream size : 1.79 GiB (88%)

  37. Source stream size : 1.88 GiB (92%)

  38. Codec configuration box : avcC

  39. Audio

  40. ID : 2

  41. Format : AAC LC

  42. Format/Info : Advanced Audio Codec Low Complexity

  43. Codec ID : mp4a-40-2

  44. Duration : 1 h 27 min

  45. Bit rate mode : Variable

  46. Bit rate : 256 kb/s / 256 kb/s

  47. Channel(s) : 2 channels

  48. Channel layout : L R

  49. Sampling rate : 44.1 kHz

  50. Frame rate : 43.066 FPS (1024 SPF)

  51. Compression mode : Lossy

  52. Stream size : 159 MiB (8%)

  53. Default : Yes

  54. Alternate group : 1


复制代码



文件下载


除非特别注明,本文『精灵变[国语配音/中文字幕].Banana.Spirit.1992.WEB-DL.1080p.H264.AAC-HOMEWEB 2.04GB』来源于互联网机器人自动抓取,非本站原创。 浮游电影网不对本文拥有版权,如有侵犯,请联系邮箱:fuyouu#yandex.com[#换成@]投诉。我们会在15个工作日内删除。 但烦请转载时请标明出处:“本文转载于『浮游电影网』,原文地址:https://www.fuyouu.com/21544.html

评论吧骚年!

发表你的见解   

昵称*

E-mail*(建议输入,以便收到博主回复的提示邮件)

验证码*

您可以使用eMule或eMule Mod(Windows)、aMule(Win、Linux、Mac)等软件下载eD2k链接。。
eMule收藏集(.emulecollection)文件是您选中的所有链接的列表文件。eMule可以直接下载它们。
按住SHIFT键选择可以选中多个选择框。
可用文件名和大小选择器来选择文件。
文件名选择器帮您根据文件名称或后缀来选择文件。不分大小写。
符号使用:
和:空格( )、+
不包含:-
或:|
转义:一对英文引号("");
匹配开头:^
匹配结尾:$
例如:
选中所有名称中包含有“eMule”或“0.49c”字眼,但不包含有“exe”字眼的:emule|0.49c -exe
选中所有名称的开头是“eMule”,结尾是“0.49c”的:^emule 0.49c$
选中所有名称中带有“eMule 0.49c”的(必须是“eMule 0.49c”,中间没有别的字符,不能是“eMule fake 0.49c”),需要转义:"emule 0.49c"
大小选择器帮您根据文件大小选择文件。