当前位置: 首页 >> 欧美电影 >> 猩球崛起[共3部合集][繁英字幕].Planet.of.the.Apes.Trilogy.2011-2017.UHD.BluRay.2160p.DTS-HD.MA.7.1.x265.10bit.HDR >> 正文

猩球崛起[共3部合集][繁英字幕].Planet.of.the.Apes.Trilogy.2011-2017.UHD.BluRay.2160p.DTS-HD.MA.7.1.x265.10bit.HDR

2022年04月21日 22:26:50     电影发布:来源于网络     电影分类:欧美电影     评论(0)    

猩球崛起[共3部合集][繁英字幕].Planet.of.the.Apes.Trilogy.2011 2017.UHD.BluRay.2160p.DTS HD.MA.7.1.x265.10bit.HDR  欧美电影  第1张

◎译 名 猩球崛起 / 猿人争霸战:猩凶革命(港) / 猿族崛起 / 猩团的崛起 / 猩星新兴(豆友译名) / Rise of the Apes

◎片 名 Rise of the Planet of the Apes

◎年 代 2011

◎产 地 美国

◎类 别 剧情 / 动作 / 科幻

◎语 言 英语 / 美国手语

◎上映日期 2011-10-28(中国大陆) / 2011-08-05(美国)

◎IMDb链接 https://www.imdb.com/title/tt1318514/

◎豆瓣评分 8.1/10 (393291人评价)

◎豆瓣链接 https://movie.douban.com/subject/3274505/

◎片 长 105分钟

◎导 演 鲁伯特·瓦耶特 Rupert Wyatt (id:1040843)

◎编 剧 里克·杰法 Rick Jaffa (id:1340782)

阿曼达·斯尔沃 Amanda Silver (id:1340783)

皮埃尔·布尔 Pierre Boulle (id:1032795)

◎演 员 安迪·瑟金斯 Andy Serkis (id:1002708)

詹姆斯·弗兰科 James Franco (id:1019001)

芙蕾达·平托 Freida Pinto (id:1025061)

约翰·利思戈 John Lithgow (id:1027824)

布莱恩·考克斯 Brian Cox (id:1019027)

汤姆·费尔顿 Tom Felton (id:1049488)

泰勒·莱伯恩 Tyler Labine (id:1048171)

卡琳·考诺娃 Karin Konoval (id:1341378)

泰瑞·诺塔里 Terry Notary (id:1341026)

理查德·赖丁斯 Richard Ridings (id:1148138)

克里斯托弗·戈登 Christopher Gordon (id:1014945)

德文·达尔顿 Devyn Dalton (id:1377327)

杰·卡普托 Jay Caputo (id:1280049)

大卫·奥伊罗 David Oyelowo (id:1000231)

杰米·哈里斯 Jamie Harris (id:1092956)

谢拉赫·霍斯达尔 Chelah Horsdal (id:1212229)

玛蒂 霍金斯 Mattie Hawkinson (id:1317456)

凯文·欧格雷迪 Kevin O'Grady (id:1340065)

大卫·里士满-佩克 David Richmond-Peck (id:1341563)

迈克尔·科普萨 Michael Kopsa (id:1108016)

麦克·多普德 Mike Dopud (id:1088714)

伊丽莎白·韦恩斯坦 Elizabeth Weinstein (id:1212047)

大卫·休莱特 David Hewlett (id:1000092)

桑娅·本妮特 Sonja Bennett (id:1049855)

崔茜·史皮瑞达可斯 Tracy Spiridakos (id:1323502)

泰·奥尔森 Ty Olsson (id:1323797)

詹姆斯·皮齐纳托 James Pizzinato (id:1340360)

卢克·罗德里克 Luc Roderique (id:1340359)

乔伊·罗切 Joey Roche (id:1342308)

迪伦·克拉克 Dylan Clark (id:1419902)

帕特里克·道尔 Patrick Doyle (id:1000556)

安德鲁·莱斯尼 Andrew Lesnie (id:1289847)

Jerad Marantz Jerad Marantz (id:1454186)

丹·赖蒙 Dan Lemmon (id:1289780)

C·迈克尔·尼利 C. Michael Neely (id:1410102)

迈克尔·科琴斯 Michael Cozens (id:1408610)

◎简 介

为了能让身患老年痴呆症的父亲重回正常的生活,威尔·罗曼(詹姆斯·弗兰科 James Franco 饰)一直致力于名为“Cure”的基因药物的开发,并在大猩猩身上不断进行着药物试验。在公司已经失去信心的同时,威尔继续在家完成试验,并在一只名为凯撒的大猩猩身上获得成功。借助灵长类学家卡洛琳(芙蕾达·平托 Freida Pinto 饰)的帮助,威尔发现凯撒的智力极大地提高。不过,人类的社会始终无法接受拥有极高智力的凯撒,凯撒被送往了猩猩看护所。看护所的残酷对待,使得凯撒利用智慧进行抗争,最终救走了同时被囚禁的其他猩猩,而且对它们都使用了Cure。一群高智商的猩猩与人类对立的战争就此拉开。本片获得了第84届奥斯卡最佳视觉效果的提名。

◎获奖情况 (共12项)

第84届奥斯卡金像奖 (2012)

最佳视觉效果(提名)

第35届日本电影学院奖 (2012)

最佳外语片(提名)

第39届动画安妮奖 (2012)

最佳真人电影动画角色

└──埃里克·雷诺兹 (id:1337966)

第17届美国评论家选择电影奖 (2012)

最佳男配角(提名)

└──安迪·瑟金斯 (id:1002708)

最佳动作片(提名)

最佳视觉效果

第10届华盛顿影评人协会奖 (2011)

最佳男配角(提名)

└──安迪·瑟金斯 (id:1002708)

第16届圣地亚哥影评人协会奖 (2011)

最佳男配角(提名)

└──安迪·瑟金斯 (id:1002708)

第11届凤凰城影评人协会奖 (2011)

最佳视觉效果(提名)

第2届豆瓣电影鑫像奖 (2012)

鑫豆单元 最佳影片(外语)(提名)

鑫豆单元 最佳导演(外语)(提名)

└──鲁伯特·瓦耶特 (id:1040843)

鑫豆单元 最佳男演员(外语)(提名)

└──安迪·瑟金斯 (id:1002708)

  1. 合集文件列表:

  2. 1.Dawn.of.the.Planet.of.the.Apes.2014.UHD.BluRay.2160p.DTS-HD.MA.7.1.x265.10bit.HDR-ALT.mkv 22.78GB

  3. 2.Rise.of.the.Planet.of.the.Apes.2011.UHD.BluRay.2160p.DTS-HD.MA.5.1.x265.10bit.HDR-ALT.mkv 14.74GB

  4. 3.War.for.the.Planet.of.the.Apes.2017.UHD.BluRay.2160p.TrueHD.Atmos.7.1.x265.10bit.HDR-ALT.mkv 19.19GB


复制代码

  1. ##### MediaInfo ######

  2. General

  3. Unique ID : 33895269103787390157017791016850738448 (0x197FFDCAAFD09117CF8C5BA742A8CD10)

  4. Complete name : Dawn.of.the.Planet.of.the.Apes.2014.UHD.BluRay.2160p.DTS-HD.MA.7.1.x265.10bit.HDR-BeiTai.mkv

  5. Format : Matroska

  6. Format version : Version 4

  7. File size : 22.8 GiB

  8. Duration : 2 h 10 min

  9. Overall bit rate mode : Variable

  10. Overall bit rate : 25.0 Mb/s

  11. Encoded date : UTC 2020-02-26 11:33:41

  12. Writing application : mkvmerge v43.0.0 ('The Quartermaster') 64-bit

  13. Writing library : libebml v1.3.10 + libmatroska v1.5.2

  14. Video

  15. ID : 1

  16. Format : HEVC

  17. Format/Info : High Efficiency Video Coding

  18. Format profile : Main [email protected]@High

  19. HDR format : SMPTE ST 2086, HDR10 compatible

  20. Codec ID : V_MPEGH/ISO/HEVC

  21. Duration : 2 h 10 min

  22. Bit rate : 19.6 Mb/s

  23. Width : 3 840 pixels

  24. Height : 2 076 pixels

  25. Display aspect ratio : 1.85:1

  26. Frame rate mode : Constant

  27. Frame rate : 23.976 (24000/1001/53354) FPS

  28. Color space : YUV

  29. Chroma subsampling : 4:2:0 (Type 2)

  30. Bit depth : 10 bits

  31. Bits/(Pixel*Frame) : 0.102

  32. Stream size : 17.8 GiB (78%)

  33. Title : HEVC, [email protected]@High, 24/1.001 fps @ 19565 kbps

  34. Writing library : x265 3.0_Au+4-dcbec33bfb0f:[Windows][GCC 8.2.1][64 bit] 10bit

  35. Encoding settings : cpuid=533541111039 / frame-threads=4 / numa-pools=12,12 / wpp / pmode / pme / no-psnr / no-ssim / log-level=2 / input-csp=1 / input-res=3840x2076 / interlace=0 / total-frames=187595 / level-idc=51 / high-tier=1 / uhd-bd=0 / ref=4 / no-allow-non-conformance / repeat-headers / annexb / no-aud / hrd / info / hash=0 / no-temporal-layers / no-open-gop / min-keyint=24 / keyint=240 / gop-lookahead=0 / bframes=8 / b-adapt=2 / b-pyramid / bframe-bias=0 / rc-lookahead=25 / lookahead-slices=0 / NTMzNTQ=uuDQuD2mJt9fsCf / scenecut=40 / radl=0 / no-splice / no-intra-refresh / ctu=64 / min-cu-size=8 / no-rect / no-amp / max-tu-size=32 / tu-inter-depth=3 / tu-intra-depth=3 / limit-tu=4 / rdoq-level=2 / dynamic-rd=0.00 / no-ssim-rd / signhide / no-tskip / nr-intra=0 / nr-inter=0 / no-constrained-intra / no-strong-intra-smoothing / max-merge=4 / limit-refs=1 / limit-modes / me=3 / subme=4 / merange=25 / temporal-mvp / weightp / weightb / no-analyze-src-pics / deblock=-3:-3 / no-sao / no-sao-non-deblock / rd=6 / no-early-skip / rskip / no-fast-intra / no-tskip-fast / no-cu-lossless / b-intra / no-splitrd-skip / rdpenalty=0 / psy-rd=2.00 / psy-rdoq=1.00 / no-rd-refine / no-lossless / cbqpoffs=0 / crqpoffs=0 / rc=crf / crf=18.5 / qcomp=0.65 / qpstep=4 / stats-write=0 / stats-read=0 / vbv-maxrate=160000 / vbv-bufsize=160000 / vbv-init=0.9 / crf-max=0.0 / crf-min=0.0 / ipratio=1.30 / pbratio=1.20 / aq-mode=3 / aq-strength=0.85 / cutree / zone-count=0 / no-strict-cbr / qg-size=32 / no-rc-grain / qpmax=69 / qpmin=0 / no-const-vbv / sar=1 / overscan=0 / videoformat=5 / range=0 / colorprim=9 / transfer=16 / colormatrix=9 / chromaloc=1 / chromaloc-top=2 / chromaloc-bottom=2 / display-window=0 / master-display=G(13250,34500)B(7500,3000)R(34000,16000)WP(15635,16450)L(10000000,0) / max-cll=0,0 / min-luma=0 / max-luma=1023 / log2-max-poc-lsb=8 / vui-timing-info / vui-hrd-info / slices=1 / no-opt-qp-pps / no-opt-ref-list-length-pps / no-multi-pass-opt-rps / scenecut-bias=0.05 / no-opt-cu-delta-qp / no-aq-motion / hdr / hdr-opt / no-dhdr10-opt / no-idr-recovery-sei / analysis-reuse-level=5 / scale-factor=0 / refine-intra=0 / refine-inter=0 / refine-mv=0 / refine-ctu-distortion=0 / no-limit-sao / ctu-info=0 / no-lowpass-dct / refine-analysis-type=0 / copy-pic=1 / max-ausize-factor=1.0 / no-dynamic-refine / no-single-sei / no-hevc-aq / qp-adaptation-range=1.00

  36. Language : English

  37. Default : Yes

  38. Forced : No

  39. Color range : Limited

  40. Color primaries : BT.2020

  41. Transfer characteristics : PQ

  42. Matrix coefficients : BT.2020 non-constant

  43. Mastering display color primaries : Display P3

  44. Mastering display luminance : min: 0.0000 cd/m2, max: 1000 cd/m2

  45. Audio #1

  46. ID : 2

  47. Format : DTS ES XLL

  48. Format/Info : Digital Theater Systems

  49. Commercial name : DTS-HD Master Audio

  50. Codec ID : A_DTS

  51. Duration : 2 h 10 min

  52. Bit rate mode : Variable

  53. Bit rate : 5 102 kb/s

  54. Channel(s) : 8 channels

  55. Channel layout : C L R Ls Rs LFE Lb Rb

  56. Sampling rate : 48.0 kHz

  57. Frame rate : 93.750 FPS (512 SPF)

  58. Bit depth : 24 bits

  59. Compression mode : Lossless

  60. Stream size : 4.65 GiB (20%)

  61. Title : English DTS-HD Master Audio 7.1 @ 5102 kbps

  62. Language : English

  63. Default : Yes

  64. Forced : No

  65. Audio #2

  66. ID : 3

  67. Format : AC-3

  68. Format/Info : Audio Coding 3

  69. Commercial name : Dolby Digital

  70. Codec ID : A_AC3

  71. Duration : 2 h 10 min

  72. Bit rate mode : Constant

  73. Bit rate : 224 kb/s

  74. Channel(s) : 2 channels

  75. Channel layout : L R

  76. Sampling rate : 48.0 kHz

  77. Frame rate : 31.250 FPS (1536 SPF)

  78. Compression mode : Lossy

  79. Stream size : 209 MiB (1%)

  80. Title : English Dolby Digital Audio 2.0 @ 224 kbps Commentary

  81. Language : English

  82. Service kind : Complete Main

  83. Default : No

  84. Forced : No

  85. Text #1

  86. ID : 4

  87. Format : PGS

  88. Codec ID : S_HDMV/PGS

  89. Codec ID/Info : Picture based subtitle format used on BDs/HD-DVDs

  90. Duration : 1 h 58 min

  91. Bit rate : 22.9 kb/s

  92. Count of elements : 2562

  93. Stream size : 19.5 MiB (0%)

  94. Title : Eng/SUP

  95. Language : English

  96. Default : No

  97. Forced : No

  98. Text #2

  99. ID : 5

  100. Format : PGS

  101. Codec ID : S_HDMV/PGS

  102. Codec ID/Info : Picture based subtitle format used on BDs/HD-DVDs

  103. Duration : 2 h 9 min

  104. Bit rate : 11.0 kb/s

  105. Count of elements : 1764

  106. Stream size : 10.2 MiB (0%)

  107. Title : Cht/SUP 原盘繁体(HK)

  108. Language : Chinese

  109. Default : No

  110. Forced : No

  111. Text #3

  112. ID : 6

  113. Format : PGS

  114. Codec ID : S_HDMV/PGS

  115. Codec ID/Info : Picture based subtitle format used on BDs/HD-DVDs

  116. Duration : 2 h 9 min

  117. Bit rate : 11.0 kb/s

  118. Count of elements : 1825

  119. Stream size : 10.2 MiB (0%)

  120. Title : Cht/SUP 原盘繁体(TW)

  121. Language : Chinese

  122. Default : Yes

  123. Forced : No

  124. Text #4

  125. ID : 7

  126. Format : PGS

  127. Codec ID : S_HDMV/PGS

  128. Codec ID/Info : Picture based subtitle format used on BDs/HD-DVDs

  129. Duration : 2 h 1 min

  130. Bit rate : 77.9 kb/s

  131. Count of elements : 4148

  132. Stream size : 67.8 MiB (0%)

  133. Title : Eng/SUP Commentary

  134. Language : English

  135. Default : No

  136. Forced : No

  137. Menu

  138. 00:00:00.000 : en:第 01 章

  139. 00:03:21.159 : en:第 02 章

  140. 00:07:34.913 : en:第 03 章

  141. 00:12:36.547 : en:第 04 章

  142. 00:16:23.566 : en:第 05 章

  143. 00:18:47.043 : en:第 06 章

  144. 00:21:52.478 : en:第 07 章

  145. 00:25:26.692 : en:第 08 章

  146. 00:29:45.867 : en:第 09 章

  147. 00:31:50.617 : en:第 10 章

  148. 00:36:43.743 : en:第 11 章

  149. 00:39:07.554 : en:第 12 章

  150. 00:40:57.163 : en:第 13 章

  151. 00:44:12.233 : en:第 14 章

  152. 00:48:11.138 : en:第 15 章

  153. 00:50:31.528 : en:第 16 章

  154. 00:53:48.016 : en:第 17 章

  155. 00:57:25.317 : en:第 18 章

  156. 01:01:18.466 : en:第 19 章

  157. 01:02:35.377 : en:第 20 章

  158. 01:04:24.069 : en:第 21 章

  159. 01:06:21.728 : en:第 22 章

  160. 01:09:31.334 : en:第 23 章

  161. 01:13:56.974 : en:第 24 章

  162. 01:17:17.925 : en:第 25 章

  163. 01:20:53.390 : en:第 26 章

  164. 01:23:28.754 : en:第 27 章

  165. 01:26:08.997 : en:第 28 章

  166. 01:28:19.252 : en:第 29 章

  167. 01:33:24.390 : en:第 30 章

  168. 01:35:53.122 : en:第 31 章

  169. 01:38:38.621 : en:第 32 章

  170. 01:40:42.536 : en:第 33 章

  171. 01:44:07.533 : en:第 34 章

  172. 01:46:05.317 : en:第 35 章

  173. 01:47:54.468 : en:第 36 章

  174. 01:52:13.769 : en:第 37 章

  175. 01:56:27.480 : en:第 38 章

  176. 02:00:31.015 : en:第 39 章

  177. 02:01:35.038 : en:第 40 章


复制代码

文件下载


除非特别注明,本文『猩球崛起[共3部合集][繁英字幕].Planet.of.the.Apes.Trilogy.2011-2017.UHD.BluRay.2160p.DTS-HD.MA.7.1.x265.10bit.HDR』来源于互联网机器人自动抓取,非本站原创。 浮游电影网不对本文拥有版权,如有侵犯,请联系邮箱:fuyouu#yandex.com[#换成@]投诉。我们会在15个工作日内删除。 但烦请转载时请标明出处:“本文转载于『浮游电影网』,原文地址:https://www.fuyouu.com/21539.html

评论吧骚年!

发表你的见解   

昵称*

E-mail*(建议输入,以便收到博主回复的提示邮件)

验证码*

您可以使用eMule或eMule Mod(Windows)、aMule(Win、Linux、Mac)等软件下载eD2k链接。。
eMule收藏集(.emulecollection)文件是您选中的所有链接的列表文件。eMule可以直接下载它们。
按住SHIFT键选择可以选中多个选择框。
可用文件名和大小选择器来选择文件。
文件名选择器帮您根据文件名称或后缀来选择文件。不分大小写。
符号使用:
和:空格( )、+
不包含:-
或:|
转义:一对英文引号("");
匹配开头:^
匹配结尾:$
例如:
选中所有名称中包含有“eMule”或“0.49c”字眼,但不包含有“exe”字眼的:emule|0.49c -exe
选中所有名称的开头是“eMule”,结尾是“0.49c”的:^emule 0.49c$
选中所有名称中带有“eMule 0.49c”的(必须是“eMule 0.49c”,中间没有别的字符,不能是“eMule fake 0.49c”),需要转义:"emule 0.49c"
大小选择器帮您根据文件大小选择文件。