当前位置: 首页 >> 欧美电影 >> 加勒比海盗[共5部合集][国英多音轨/简繁英字幕].Pirates.of.the.Caribbean.4K.Collection.2003-2017.UHD.BluRay.2160p.2Audio.T >> 正文

加勒比海盗[共5部合集][国英多音轨/简繁英字幕].Pirates.of.the.Caribbean.4K.Collection.2003-2017.UHD.BluRay.2160p.2Audio.T

2022年04月21日 22:24:24     电影发布:来源于网络     电影分类:欧美电影     评论(0)    

加勒比海盗[共5部合集][国英多音轨/简繁英字幕].Pirates.of.the.Caribbean.4K.Collection.2003 2017.UHD.BluRay.2160p.2Audio.T  欧美电影  第1张

◎译 名 加勒比海盗 / 加勒比海盗1:黑珍珠号的诅咒 / 神鬼奇航:鬼盗船魔咒(台) / 魔盗王:决战鬼盗船 / 海盗船

◎片 名 Pirates of the Caribbean: The Curse of the Black Pearl

◎年 代 2003

◎产 地 美国

◎类 别 动作 / 奇幻 / 冒险

◎语 言 英语

◎上映日期 2003-11-21(中国大陆) / 2003-07-09(美国)

◎IMDb链接 https://www.imdb.com/title/tt0325980/

◎豆瓣评分 8.8/10 (774957人评价)

◎豆瓣链接 https://movie.douban.com/subject/1298070/

◎片 长 143 分钟

◎导 演 戈尔·维宾斯基 Gore Verbinski (id:1031987)

◎编 剧 泰德·艾略特 Ted Elliott (id:1283130)

特里·鲁西奥 Terry Rossio (id:1009677)

斯图尔特·贝亚蒂耶 Stuart Beattie (id:1278161)

杰·沃尔伯特 Jay Wolpert (id:1344903)

◎演 员 约翰尼·德普 Johnny Depp (id:1054456)

杰弗里·拉什 Geoffrey Rush (id:1010543)

奥兰多·布鲁姆 Orlando Bloom (id:1008069)

凯拉·奈特莉 Keira Knightley (id:1054448)

杰克·达文波特 Jack Davenport (id:1031865)

乔纳森·普雷斯 Jonathan Pryce (id:1019055)

李·阿伦伯格 Lee Arenberg (id:1010673)

大卫·拜利 David Bailie (id:1315199)

马丁·科勒巴 Martin Klebba (id:1010683)

乔迪·卡巴勒罗 Jordi Caballero (id:1005144)

劳伦·马赫 Lauren Maher (id:1343121)

安格斯·巴尼特 Angus Barnett (id:1429353)

露欣达·戴泽克 Lucinda Dryzek (id:1317715)

陆建艺 Jianyi Lu (id:1334341)

Giles New Giles New (id:1376701)

小伊萨克·C.辛格尔顿 Isaac C. Singleton Jr. (id:1357531)

麦肯锡·克鲁克 Mackenzie Crook (id:1027264)

Christian Martin Christian Martin (id:1122287)

凯文·麦克纳利 Kevin McNally (id:1123046)

瓦妮莎·布兰奇 Vanessa Branch (id:1000388)

内杰·亚当森 Nej Adamson (id:1142541)

戴兰·史密斯 Dylan Smith (id:1155214)

盖伊·西纳 Guy Siner (id:1158696)

达米恩·奥哈尔 Damian O'Hare (id:1174919)

David Patykewich David Patykewich (id:1205508)

保罗·基斯 Paul Keith (id:1104933)

罗比·基 Robbie Gee (id:1098633)

卢克·德·沃夫松 Luke de Woolfson (id:1032669)

佐伊·索尔达娜 Zoe Saldana (id:1047985)

乔·格里萨菲 Joe Grisaffi (id:1055413)

格雷格·埃利斯 Greg Ellis (id:1081894)

特雷瓦·埃迪内 Treva Etienne (id:1086733)

特雷沃·格德达德 Trevor Goddard (id:1091681)

杰拉德·J·雷耶斯 Gerard J. Reyes (id:1220720)

Paul Deason Paul Deason (id:1282116)

杰瑞·布鲁克海默 Jerry Bruckheimer (id:1049617)

布鲁斯·亨德里克斯 Bruce Hendricks (id:1422113)

克劳斯·巴代特 Klaus Badelt (id:1018241)

达瑞兹·沃斯基 Dariusz Wolski (id:1276296)

克雷格·伍德 Craig Wood (id:1301227)

史蒂芬·E·里夫金 Stephen E. Rivkin (id:1295725)

阿瑟·施密特 Arthur Schmidt (id:1296896)

罗纳·克雷斯 Ronna Kress (id:1055276)

德雷克·R·希尔 Derek R. Hill (id:1286622)

拉里·迪亚斯 Larry Dias (id:1282384)

Donald B. Woodruff Donald B. Woodruff (id:1276364)

詹姆斯·托奇 James E. Tocci (id:1299326)

布莱恩·莫里斯 Brian Morris (id:1292532)

詹姆斯·沃德·布柯特 James Ward Byrkit (id:1342405)

佩妮·罗斯 Penny Rose (id:1296044)

Lucia Mace Lucia Mace (id:1290632)

布莱恩·西普 Brian Sipe (id:1297726)

Michael O'Brien Michael O'Brien (id:1302446)

Marc Boyle Marc Boyle (id:1303138)

斯科特·帕顿 Scott Patton (id:1294104)

Deborah Patino Rutherford Deborah Patino Rutherford (id:1294077)

Katherine Rees Katherine Rees (id:1295382)

Nina Paskowitz Nina Paskowitz (id:1294045)

马丁·萨缪尔 Martin Samuel (id:1296594)

Jay Wejebe Jay Wejebe (id:1300656)

Josée Normand Josée Normand (id:1293282)

道格拉斯·诺亚 Douglas Noe (id:1293238)

维·尼尔 Ve Neill (id:1293011)

基斯·范德兰 Keith VanderLaan (id:1299886)

Felicia Linsky Felicia Linsky (id:1290105)

Cammy R. Langer Cammy R. Langer (id:1289405)

马雷斯·朗根 Marese Langan (id:1289392)

Susan Carol Schwary Susan Carol Schwary (id:1072650)

Nathan Franson (id:1225722)

巴尼·布尔曼 Barney Burman (id:1279667)

格雷格·卡农 Greg Cannom (id:1280002)

Mary Howd Mary Howd (id:1170862)

Cristina Patterson Ceret Cristina Patterson Ceret (id:1133266)

Gabriel De Cunto Gabriel De Cunto (id:1281996)

David DeLeon David DeLeon (id:1282189)

乔尔·哈罗 Joel Harlow (id:1286056)

托尼·G Toni G (id:1284361)

Kris Evans Kris Evans (id:1283346)

David Dupuis David Dupuis (id:1282837)

哈泽尔·凯特穆尔 Hazel Catmull (id:1280294)

肯·迪亚兹 Ken Diaz (id:1282388)

Andrew Ward Andrew Ward (id:1166225)

李·奥尔洛夫 Lee Orloff (id:1293624)

Lee Croft Lee Croft (id:1215427)

Giovanni Nakpil Giovanni Nakpil (id:1216173)

格雷戈里·克里泽 Gregory Creaser (id:1219802)

维克托·舒尔茨 Victor Schutz (id:1224763)

查尔斯·吉布森 Charles Gibson (id:1276261)

Lauren Abrams Lauren Abrams (id:1276760)

Chris Armstrong Chris Armstrong (id:1277400)

Charles Bailey Charles Bailey (id:1277693)

Dugan Beach Dugan Beach (id:1278146)

罗伯特·罗尔斯 Robert Rowles (id:1213856)

杰克·梅缪德斯 Jake Maymudes (id:1210370)

埃里克·D·克里斯坦森 Eric D. Christensen (id:1161318)

安迪·巴里奥斯 Andy Barrios (id:1163399)

小罗尼·E·威廉姆斯 Ronnie E. Williams Jr. (id:1164066)

约翰·西格尔德森 John Sigurdson (id:1169492)

Robert Edwards Robert Edwards (id:1283014)

Wesley Sewell Wesley Sewell (id:1297260)

John Hansen John Hansen (id:1190471)

格雷格·吉尔莫 Greg Gilmore (id:1192415)

Jessica Dara Westbrook Jessica Dara Westbrook (id:1196301)

泰隆·普拉特 Terron Pratt (id:1199618)

Sarahjane Javelo Sarahjane Javelo (id:1308117)

Jason Brackett Jason Brackett (id:1279138)

Jill Brooks Jill Brooks (id:1279387)

Carl Miller Carl Miller (id:1292070)

汤姆·菲杰斯 Tom Fejes (id:1283534)

John McLeod John McLeod (id:1291681)

David Gainey David Gainey (id:1284396)

Jonathan Harb Jonathan Harb (id:1286014)

杰弗·海隆 Geoff Heron (id:1286513)

哈尔·T·希克尔 Hal T. Hickel (id:1286578)

Sherry Hitch Sherry Hitch (id:1286696)

丹尼斯·霍夫曼 Dennis Hoffman (id:1286766)

Shawn Kelly Shawn Kelly (id:1288355)

拉塞尔·厄尔 Russell Earl (id:1282937)

Yannick 'Botex' Dusseault Yannick 'Botex' Dusseault (id:1282869)

Geoff Campbell Geoff Campbell (id:1279960)

Sue Campbell Sue Campbell (id:1279978)

Tami Carter Tami Carter (id:1280196)

布雷特·诺特卡特 Brett Northcutt (id:1293296)

Marc Chu Marc Chu (id:1280777)

Robbie Clot Robbie Clot (id:1280938)

布莱恩·康纳 Brian Connor (id:1281143)

Michael Conte Michael Conte (id:1281172)

Patrick T. Myers Patrick T. Myers (id:1292827)

杰克·莫多万 Jack Mongovan (id:1292344)

约翰·诺尔 John Knoll (id:1288774)

John Scheer John Scheer (id:1048859)

塞德里克·萨科 Cedric Nicolas-Troyan (id:1036186)

兰迪·卡特赖特 Randy Cartwright (id:1042378)

Bob Powell Bob Powell (id:1043386)

Tory Mercer Tory Mercer (id:1304516)

特拉维斯·鲍曼 Travis Baumann (id:1048779)

格拉迪·科菲 Grady Cofer (id:1280960)

Tim Landry Tim Landry (id:1052634)

Aaron McBride Aaron McBride (id:1304410)

行弘进 Susumu Yukuhiro (id:1303480)

阿尔·贝利 Al Bailey (id:1058232)

Simon Holden Simon Holden (id:1034363)

Giles Hancock Giles Hancock (id:1307848)

戴维·C·布莱恩特 David C. Bryant (id:1008497)

Moon-Jung Kang Moon-Jung Kang (id:1312558)

Peter Bailey Peter Bailey (id:1310658)

Martin Murphy Martin Murphy (id:1310598)

本·普罗克特 Ben Procter (id:1309337)

Amit Dhawal Amit Dhawal (id:1020728)

Sean C. Cunningham Sean C. Cunningham (id:1025694)

贾卡布·皮斯泰奇 Jakub Pistecky (id:1308696)

保罗·卡凡纳 Paul Kavanagh (id:1308173)

田师正子 Masahiko Tani (id:1308063)

唐·比斯 Don Bies (id:1061497)

R. Christopher Biggs R. Christopher Biggs (id:1062839)

John Cassella John Cassella (id:1072146)

杰夫·萨瑟兰 Jeff Sutherland (id:1298679)

史蒂夫·沃尔顿 Steve Walton (id:1300376)

托德·瓦兹里 Todd Vaziri (id:1299925)

Alan Rosenfeld Alan Rosenfeld (id:1140488)

Pat Sweeney Pat Sweeney (id:1298721)

米歇尔·莫塔 Michelle Motta (id:1128937)

帕特里克·图巴赫 Patrick Tubach (id:1299595)

詹姆斯·托利 James Tooley (id:1299390)

W. Regan McGee W. Regan McGee (id:1122807)

Durant Schoon Durant Schoon (id:1145261)

Chad Taylor Chad Taylor (id:1298971)

肯尼斯·史密斯 Kenneth Smith (id:1297900)

David Sosalla David Sosalla (id:1298080)

Cathy Burrows Cathy Burrows (id:1074874)

P·凯文·斯科特 P. Kevin Scott (id:1146099)

Paul Churchill Paul Churchill (id:1078031)

◎简 介

故事发生在17世纪,传说中海盗最为活跃的加勒比海。风趣迷人的杰克·斯伯洛(约翰尼·德普 Johnny Depp 饰),是活跃在加勒比海上的海盗,拥有属于自己的“黑珍珠”号海盗船。对他来说,最惬意的生活就是驾驶着“黑珍珠”号在加勒比海上游荡,自由自在的打劫过往船只。但不幸的是,他的仇敌,老谋深算的巴尔巴罗萨船长(杰弗里·拉什 Geoffrey Rush 饰)偷走了他的“黑珍珠”号。巴伯萨是一个无恶不作的坏蛋,他抢劫了杰克的"黑珍珠号"后,更加猖狂,在加勒比海上横行霸道,一时成为整个加勒比海的霸主。

一次,巴伯萨一伙袭击了罗亚尔港小镇,还绑架了总督的女儿伊莉莎白·斯万(凯拉·奈特莉 Keira Knightley 饰)和伊莉莎白青梅竹马的铁匠学徒威尔·特纳(奥兰多·布鲁姆 Orlando Bloom 饰),想方设法救出了狱中的船长杰克,偷来英国皇家舰队最...

◎获奖情况 (共11项)

第76届奥斯卡金像奖 (2004)

最佳男主角(提名)

└──约翰尼·德普 (id:1054456)

最佳视觉效果(提名)

最佳混音(提名)

最佳音效剪辑(提名)

最佳化妆(提名)

第61届金球奖 (2004)

电影类 音乐/喜剧片最佳男主角(提名)

└──约翰尼·德普 (id:1054456)

第57届英国电影学院奖 (2004)

电影奖 最佳男主角(提名)

└──约翰尼·德普 (id:1054456)

电影奖 最佳化妆/发型

电影奖 最佳服装设计(提名)

└──佩妮·罗斯 (id:1296044)

电影奖 最佳特殊视觉效果(提名)

电影奖 最佳音效(提名)

  1. 合集文件列表:

  2. 1.Pirates.of.the.Caribbean.1.2003.UHD.BluRay.2160p.2Audio.TrueHD.Atmos.7.1.x265.10bit.HDR-ALT.mkv 16.76GB

  3. 2.Pirates.of.the.Caribbean.2.2006.UHD.BluRay.2160p.2Audio.TrueHD.Atmos.7.1.x265.10bit.HDR-ALT.mkv 23.94GB

  4. 3.Pirates.of.the.Caribbean.3.2007.UHD.BluRay.2160p.2Audio.TrueHD.Atmos.7.1.x265.10bit.HDR-ALT.mkv 29.10GB

  5. 4.Pirates.of.the.Caribbean.4.2011.UHD.BluRay.2160p.2Audio.TrueHD.Atmos.7.1.x265.10bit.HDR-ALT.mkv 16.24GB

  6. 5.Pirates.of.the.Caribbean.5.2017.UHD.BluRay.2160p.2Audio.TrueHD.Atmos.7.1.x265.10bit.HDR-ALT.mkv 23.84GB


复制代码

  1. ##### MediaInfo ######

  2. General

  3. Unique ID : 267468479120333256250038100703554786786 (0xC9388E28E947F4A60386B8A059BB55E2)

  4. Complete name : Pirates.of.the.Caribbean.1.2003.UHD.BluRay.2160p.2Audio.TrueHD.Atmos.7.1.x265.10bit.HDR-BeiTai.mkv

  5. Format : Matroska

  6. Format version : Version 4

  7. File size : 16.8 GiB

  8. Duration : 2 h 23 min

  9. Overall bit rate mode : Variable

  10. Overall bit rate : 16.7 Mb/s

  11. Encoded date : UTC 2022-01-21 13:19:39

  12. Writing application : mkvmerge v49.0.0 ('Sick Of Losing Soulmates') 64-bit

  13. Writing library : libebml v1.4.0 + libmatroska v1.6.1

  14. Video

  15. ID : 1

  16. Format : HEVC

  17. Format/Info : High Efficiency Video Coding

  18. Format profile : Main [email protected]@High

  19. HDR format : SMPTE ST 2086, HDR10 compatible

  20. Codec ID : V_MPEGH/ISO/HEVC

  21. Duration : 2 h 23 min

  22. Bit rate : 11.1 Mb/s

  23. Width : 3 840 pixels

  24. Height : 1 636 pixels

  25. Display aspect ratio : 2.35:1

  26. Frame rate mode : Constant

  27. Frame rate : 23.976 (24000/1001/53354) FPS

  28. Color space : YUV

  29. Chroma subsampling : 4:2:0 (Type 2)

  30. Bit depth : 10 bits

  31. Bits/(Pixel*Frame) : 0.074

  32. Stream size : 11.1 GiB (66%)

  33. Title : HEVC, [email protected]@High, 24/1.001 fps @ 11126 kbps

  34. Writing library : x265 3.4+14-gd419c7152:[Windows][GCC 10.2.0][64 bit] 10bit

  35. Encoding settings : cpuid=533541111039 / frame-threads=4 / numa-pools=20 / wpp / pmode / pme / no-psnr / no-ssim / log-level=2 / input-csp=1 / input-res=3840x1636 / interlace=0 / total-frames=205936 / level-idc=51 / high-tier=1 / uhd-bd=0 / ref=4 / no-allow-non-conformance / repeat-headers / annexb / no-aud / hrd / info / hash=0 / no-temporal-layers / no-open-gop / min-keyint=24 / keyint=240 / gop-lookahead=0 / bframes=8 / b-adapt=2 / b-pyramid / bframe-bias=0 / rc-lookahead=25 / lookahead-slices=0 / NTMzNTQ=uuDQuD2mJt9fsCf / scenecut=40 / hist-scenecut=0 / radl=0 / no-splice / no-intra-refresh / ctu=64 / min-cu-size=8 / no-rect / no-amp / max-tu-size=32 / tu-inter-depth=3 / tu-intra-depth=3 / limit-tu=4 / rdoq-level=2 / dynamic-rd=0.00 / no-ssim-rd / signhide / no-tskip / nr-intra=0 / nr-inter=0 / no-constrained-intra / no-strong-intra-smoothing / max-merge=4 / limit-refs=1 / limit-modes / me=3 / subme=4 / merange=57 / temporal-mvp / no-frame-dup / no-hme / weightp / weightb / no-analyze-src-pics / deblock=-3:-3 / no-sao / no-sao-non-deblock / rd=6 / selective-sao=0 / no-early-skip / rskip / no-fast-intra / no-tskip-fast / no-cu-lossless / b-intra / no-splitrd-skip / rdpenalty=0 / psy-rd=2.00 / psy-rdoq=1.00 / no-rd-refine / no-lossless / cbqpoffs=0 / crqpoffs=0 / rc=crf / crf=18.5 / qcomp=0.65 / qpstep=4 / stats-write=0 / stats-read=0 / vbv-maxrate=160000 / vbv-bufsize=160000 / vbv-init=0.9 / crf-max=0.0 / crf-min=0.0 / ipratio=1.30 / pbratio=1.20 / aq-mode=3 / aq-strength=0.85 / cutree / zone-count=0 / no-strict-cbr / qg-size=32 / no-rc-grain / qpmax=69 / qpmin=0 / no-const-vbv / sar=1 / overscan=0 / videoformat=5 / range=0 / colorprim=9 / transfer=16 / colormatrix=9 / chromaloc=1 / chromaloc-top=2 / chromaloc-bottom=2 / display-window=0 / master-display=G(13250,34500)B(7500,3000)R(34000,16000)WP(15635,16450)L(40000000,50) / cll=0,0 / min-luma=0 / max-luma=1023 / log2-max-poc-lsb=8 / vui-timing-info / vui-hrd-info / slices=1 / no-opt-qp-pps / no-opt-ref-list-length-pps / no-multi-pass-opt-rps / scenecut-bias=0.05 / hist-threshold=0.03 / no-opt-cu-delta-qp / no-aq-motion / hdr10 / hdr10-opt / no-dhdr10-opt / no-idr-recovery-sei / analysis-reuse-level=0 / analysis-save-reuse-level=0 / analysis-load-reuse-level=0 / scale-factor=0 / refine-intra=0 / refine-inter=0 / refine-mv=1 / refine-ctu-distortion=0 / no-limit-sao / ctu-info=0 / no-lowpass-dct / refine-analysis-type=0 / copy-pic=1 / max-ausize-factor=1.0 / no-dynamic-refine / no-single-sei / no-hevc-aq / no-svt / no-field / qp-adaptation-range=1.00 / no-scenecut-aware-qpconformance-window-offsets / right=0 / bottom=0 / NTMzNTQ= / decoder-max-rate=0

  36. Language : English

  37. Default : Yes

  38. Forced : No

  39. Color range : Limited

  40. Color primaries : BT.2020

  41. Transfer characteristics : PQ

  42. Matrix coefficients : BT.2020 non-constant

  43. Mastering display color primaries : Display P3

  44. Mastering display luminance : min: 0.0050 cd/m2, max: 4000 cd/m2

  45. Audio #1

  46. ID : 2

  47. Format : MLP FBA 16-ch

  48. Format/Info : Meridian Lossless Packing FBA with 16-channel presentation

  49. Commercial name : Dolby TrueHD with Dolby Atmos

  50. Codec ID : A_TRUEHD

  51. Duration : 2 h 23 min

  52. Bit rate mode : Variable

  53. Bit rate : 4 115 kb/s

  54. Maximum bit rate : 6 693 kb/s

  55. Channel(s) : 8 channels

  56. Channel layout : L R C LFE Ls Rs Lb Rb

  57. Sampling rate : 48.0 kHz

  58. Frame rate : 1 200.000 FPS (40 SPF)

  59. Compression mode : Lossless

  60. Stream size : 4.11 GiB (25%)

  61. Title : English Dolby TrueHD 7.1 (Atmos) @ 4755 kbps

  62. Language : English

  63. Default : Yes

  64. Forced : No

  65. Number of dynamic objects : 13

  66. Bed channel count : 1 channel

  67. Bed channel configuration : LFE

  68. Audio #2

  69. ID : 3

  70. Format : AC-3

  71. Format/Info : Audio Coding 3

  72. Commercial name : Dolby Digital

  73. Codec ID : A_AC3

  74. Duration : 2 h 23 min

  75. Bit rate mode : Constant

  76. Bit rate : 640 kb/s

  77. Channel(s) : 6 channels

  78. Channel layout : L R C LFE Ls Rs

  79. Sampling rate : 48.0 kHz

  80. Frame rate : 31.250 FPS (1536 SPF)

  81. Compression mode : Lossy

  82. Stream size : 655 MiB (4%)

  83. Title : English Dolby 5.1-EX 5.1 @ 640 kbps

  84. Language : English

  85. Service kind : Complete Main

  86. Default : No

  87. Forced : No

  88. Audio #3

  89. ID : 4

  90. Format : AC-3

  91. Format/Info : Audio Coding 3

  92. Commercial name : Dolby Digital

  93. Codec ID : A_AC3

  94. Duration : 2 h 23 min

  95. Bit rate mode : Constant

  96. Bit rate : 640 kb/s

  97. Channel(s) : 6 channels

  98. Channel layout : L R C LFE Ls Rs

  99. Sampling rate : 48.0 kHz

  100. Frame rate : 31.250 FPS (1536 SPF)

  101. Compression mode : Lossy

  102. Stream size : 656 MiB (4%)

  103. Title : Mandarin Dolby Digital Audio 5.1 @ 640 kbps

  104. Language : Chinese

  105. Service kind : Complete Main

  106. Default : No

  107. Forced : No

  108. Text #1

  109. ID : 5

  110. Format : PGS

  111. Codec ID : S_HDMV/PGS

  112. Codec ID/Info : Picture based subtitle format used on BDs/HD-DVDs

  113. Duration : 2 h 22 min

  114. Bit rate : 32.9 kb/s

  115. Count of elements : 3074

  116. Stream size : 33.5 MiB (0%)

  117. Title : Eng/SUP

  118. Language : English

  119. Default : No

  120. Forced : No

  121. Text #2

  122. ID : 6

  123. Format : PGS

  124. Codec ID : S_HDMV/PGS

  125. Codec ID/Info : Picture based subtitle format used on BDs/HD-DVDs

  126. Duration : 2 h 14 min

  127. Bit rate : 23.5 kb/s

  128. Count of elements : 2729

  129. Stream size : 22.6 MiB (0%)

  130. Title : Chs/SUP 画面内官译简体中字

  131. Language : Chinese

  132. Default : Yes

  133. Forced : No

  134. Text #3

  135. ID : 7

  136. Format : PGS

  137. Codec ID : S_HDMV/PGS

  138. Codec ID/Info : Picture based subtitle format used on BDs/HD-DVDs

  139. Duration : 2 h 14 min

  140. Bit rate : 23.9 kb/s

  141. Count of elements : 2729

  142. Stream size : 23.0 MiB (0%)

  143. Title : Cht/SUP 画面内官译繁体中字

  144. Language : Chinese

  145. Default : No

  146. Forced : No

  147. Text #4

  148. ID : 8

  149. Format : PGS

  150. Codec ID : S_HDMV/PGS

  151. Codec ID/Info : Picture based subtitle format used on BDs/HD-DVDs

  152. Duration : 2 h 13 min

  153. Bit rate : 49.5 kb/s

  154. Count of elements : 2922

  155. Stream size : 47.1 MiB (0%)

  156. Title : Chs/SUP 画面内简英双语字幕

  157. Language : Chinese

  158. Default : No

  159. Forced : No

  160. Text #5

  161. ID : 9

  162. Format : PGS

  163. Codec ID : S_HDMV/PGS

  164. Codec ID/Info : Picture based subtitle format used on BDs/HD-DVDs

  165. Duration : 2 h 13 min

  166. Bit rate : 50.0 kb/s

  167. Count of elements : 2922

  168. Stream size : 47.6 MiB (0%)

  169. Title : Cht/SUP 画面内繁英双语字幕

  170. Language : Chinese

  171. Default : No

  172. Forced : No

  173. Menu

  174. 00:00:00.000 : en:第 01 章

  175. 00:08:51.239 : en:第 02 章

  176. 00:16:05.548 : en:第 03 章

  177. 00:27:16.343 : en:第 04 章

  178. 00:35:59.324 : en:第 05 章

  179. 00:41:02.960 : en:第 06 章

  180. 00:48:19.939 : en:第 07 章

  181. 00:54:01.280 : en:第 08 章

  182. 01:04:05.675 : en:第 09 章

  183. 01:15:56.802 : en:第 10 章

  184. 01:21:21.418 : en:第 11 章

  185. 01:35:00.236 : en:第 12 章

  186. 01:40:00.828 : en:第 13 章

  187. 01:48:15.614 : en:第 14 章

  188. 02:02:02.190 : en:第 15 章

  189. 02:13:09.648 : en:第 16 章


复制代码



文件下载


除非特别注明,本文『加勒比海盗[共5部合集][国英多音轨/简繁英字幕].Pirates.of.the.Caribbean.4K.Collection.2003-2017.UHD.BluRay.2160p.2Audio.T』来源于互联网机器人自动抓取,非本站原创。 浮游电影网不对本文拥有版权,如有侵犯,请联系邮箱:fuyouu#yandex.com[#换成@]投诉。我们会在15个工作日内删除。 但烦请转载时请标明出处:“本文转载于『浮游电影网』,原文地址:https://www.fuyouu.com/21538.html

评论吧骚年!

发表你的见解   

昵称*

E-mail*(建议输入,以便收到博主回复的提示邮件)

验证码*

您可以使用eMule或eMule Mod(Windows)、aMule(Win、Linux、Mac)等软件下载eD2k链接。。
eMule收藏集(.emulecollection)文件是您选中的所有链接的列表文件。eMule可以直接下载它们。
按住SHIFT键选择可以选中多个选择框。
可用文件名和大小选择器来选择文件。
文件名选择器帮您根据文件名称或后缀来选择文件。不分大小写。
符号使用:
和:空格( )、+
不包含:-
或:|
转义:一对英文引号("");
匹配开头:^
匹配结尾:$
例如:
选中所有名称中包含有“eMule”或“0.49c”字眼,但不包含有“exe”字眼的:emule|0.49c -exe
选中所有名称的开头是“eMule”,结尾是“0.49c”的:^emule 0.49c$
选中所有名称中带有“eMule 0.49c”的(必须是“eMule 0.49c”,中间没有别的字符,不能是“eMule fake 0.49c”),需要转义:"emule 0.49c"
大小选择器帮您根据文件大小选择文件。