当前位置: 首页 >> 动画电影 >> 宇宙奇趣录[中文字幕].Heavy.Metal.1981.2160p.BluRay.REMUX.HEVC.DTS-HD.MA.TrueHD.7.1.Atmos-FGT 52.59GB >> 正文

宇宙奇趣录[中文字幕].Heavy.Metal.1981.2160p.BluRay.REMUX.HEVC.DTS-HD.MA.TrueHD.7.1.Atmos-FGT 52.59GB

2022年04月21日 22:20:30     电影发布:来源于网络     电影分类:动画电影     评论(0)    

宇宙奇趣录[中文字幕].Heavy.Metal.1981.2160p.BluRay.REMUX.HEVC.DTS HD.MA.TrueHD.7.1.Atmos FGT 52.59GB  动画电影  第1张

◎译 名 宇宙奇趣录 / 重金属 / 宇宙神怪录

◎片 名 Heavy Metal

◎年 代 1981

◎产 地 加拿大

◎类 别 动画 / 奇幻 / 冒险

◎语 言 英语

◎上映日期 1981-07-29

◎IMDb链接 https://www.imdb.com/title/tt0082509/

◎豆瓣评分 7.6/10 (1686人评价)

◎豆瓣链接 https://movie.douban.com/subject/1298377/

◎片 长 86 分钟

◎导 演 杰拉德·伯特顿 Gerald Potterton (id:1033023)

◎编 剧 丹·欧班农 Dan O'Bannon (id:1027500)

让·纪劳 Jean Giraud (id:1045622)

Richard Corben Richard Corben (id:1042764)

伯尼·莱特森 Bernie Wrightson (id:1042652)

莱恩·布卢姆 Len Blum (id:1278839)

丹尼尔·戈德堡 Daniel Goldberg (id:1285031)

◎演 员 罗德格尔·邦帕斯 Rodger Bumpass (id:1069989)

约翰·坎迪 John Candy (id:1041130)

杰姬·布罗斯 Jackie Burroughs (id:1072181)

道格拉斯·肯尼 Douglas Kenney (id:1036614)

尤金·列维 Eugene Levy (id:1036438)

阿尔·韦克斯曼 Al Waxman (id:1032551)

约翰·沃侬 John Vernon (id:1032082)

奥古斯特·斯彻伦伯格 August Schellenberg (id:1022901)

塞德里克·史密斯 Cedric Smith (id:1297864)

瓦拉斯塔·瓦拉纳 Vlasta Vrana (id:1300208)

哈罗德·雷米斯 Harold Ramis (id:1040554)

哈维·阿金 Harvey Atkin (id:1058215)

唐·弗朗克斯 Don Francks (id:1080340)

乔·弗莱厄蒂 Joe Flaherty (id:1080857)

Mavor Moore Mavor Moore (id:1127837)

艾丽斯·普莱坦 Alice Playten (id:1134086)

苏珊·罗曼 Susan Roman (id:1146410)

Percy Rodrigues Percy Rodrigues (id:1148366)

乔治·图利亚托斯 George Touliatos (id:1151492)

Zal Yanovsky Zal Yanovsky (id:1161283)

理查德·罗农斯 Richard Romanus (id:1007158)

伊万·雷特曼 Ivan Reitman (id:1041182)

约翰·寇特斯 John Coates (id:1280928)

Michael C. Gross Michael C. Gross (id:1285528)

约翰·哈拉斯 John Halas (id:1003698)

埃尔默·伯恩斯坦 Elmer Bernstein (id:1002856)

Michael C. Gross Michael C. Gross (id:1285528)

Pat Gavin Pat Gavin (id:1284633)

Christopher Dusendschon Christopher Dusendschon (id:1180674)

约翰·布鲁诺 John Bruno (id:1279507)

Lee Dyer Lee Dyer (id:1282897)

亚历克斯·方克 Alex Funke (id:1028655)

米歇尔·莫恩 Michele Moen (id:1292270)

Lisa Atkinson Lisa Atkinson (id:1004007)

◎简 介

只要有处在青春期脑子里面整天都是性幻想的少男存在,这部片子就不愁没有观众。 这部在1981年上映的影片是根据同名图片杂志改编的(当然是一本最大限度激发了想象力和“自慰”本能的杂志),也同时成为Columbia/TriStar's公司作品中最响亮的名字。不同的人有着截然不同的评论,一是专业的成年评论者,他们认为这部动画片就是抓住了特定人群的心理,利用炫目奇幻的特点吸引年轻族群,招来全世界上百位动画技师但也没有任何革命性的创新出现。但是相反躁动的年轻人可不这样看,影片上映在80年代初期,刚刚经历完70年代美国思潮的年轻人们急欲找到能够释放的渠道,深夜观看这部片子也许就是他们最大的慰籍...

  1. Video

  2. ID : 1

  3. ID in the original source medium : 4113 (0x1011)

  4. Format : HEVC

  5. Format/Info : High Efficiency Video Coding

  6. Format profile : Main [email protected]@High

  7. HDR format : Dolby Vision, Version 1.0, dvhe.07.06, BL+EL+RPU, Blu-ray compatible / SMPTE ST 2086, HDR10 compatible

  8. Codec ID : V_MPEGH/ISO/HEVC

  9. Duration : 1 h 30 min

  10. Bit rate : 60.0 Mb/s

  11. Width : 3 840 pixels

  12. Height : 2 160 pixels

  13. Display aspect ratio : 16:9

  14. Frame rate mode : Constant

  15. Frame rate : 23.976 (24000/1001/53354) FPS

  16. Color space : YUV

  17. Chroma subsampling : 4:2:0 (Type 2)

  18. Bit depth : 10 bits

  19. Bits/(Pixel*Frame) : 0.302

  20. Stream size : 37.9 GiB (72%)

  21. Language : English

  22. Default : No

  23. Forced : No

  24. Color range : Limited

  25. Color primaries : BT.2020

  26. Transfer characteristics : PQ

  27. Matrix coefficients : BT.2020 non-constant

  28. Mastering display color primaries : Display P3

  29. Mastering display luminance : min: 0.0001 cd/m2, max: 2000 cd/m2

  30. Maximum Content Light Level : 1800 cd/m2

  31. Maximum Frame-Average Light Level : 678 cd/m2

  32. Original source medium : Blu-ray


  33. Audio #1

  34. ID : 2

  35. ID in the original source medium : 4352 (0x1100)

  36. Format : MLP FBA 16-ch

  37. Format/Info : Meridian Lossless Packing FBA with 16-channel presentation

  38. Commercial name : Dolby TrueHD with Dolby Atmos

  39. Codec ID : A_TRUEHD

  40. Duration : 1 h 30 min

  41. Bit rate mode : Variable

  42. Bit rate : 5 161 kb/s

  43. Maximum bit rate : 7 644 kb/s

  44. Channel(s) : 8 channels

  45. Channel layout : L R C LFE Ls Rs Lb Rb

  46. Sampling rate : 48.0 kHz

  47. Frame rate : 1 200.000 FPS (40 SPF)

  48. Bit depth : 24 bits

  49. Compression mode : Lossless

  50. Stream size : 3.26 GiB (6%)

  51. Title : TrueHD 7.1 Atmos

  52. Language : English

  53. Default : Yes

  54. Forced : No

  55. Original source medium : Blu-ray

  56. Number of dynamic objects : 11

  57. Bed channel count : 1 channel

  58. Bed channel configuration : LFE


  59. Audio #2

  60. ID : 3

  61. Format : DTS XLL

  62. Format/Info : Digital Theater Systems

  63. Commercial name : DTS-HD Master Audio

  64. Codec ID : A_DTS

  65. Duration : 1 h 30 min

  66. Bit rate mode : Variable

  67. Bit rate : 4 574 kb/s

  68. Channel(s) : 8 channels

  69. Channel layout : C L R LFE Lb Rb Lss Rss

  70. Sampling rate : 48.0 kHz

  71. Frame rate : 93.750 FPS (512 SPF)

  72. Bit depth : 24 bits

  73. Compression mode : Lossless

  74. Stream size : 2.89 GiB (5%)

  75. Title : DTS-HD MA 7.1

  76. Language : English

  77. Default : No

  78. Forced : No


  79. Audio #3

  80. ID : 4

  81. ID in the original source medium : 4352 (0x1100)

  82. Format : AC-3

  83. Format/Info : Audio Coding 3

  84. Commercial name : Dolby Digital

  85. Codec ID : A_AC3

  86. Duration : 1 h 30 min

  87. Bit rate mode : Constant

  88. Bit rate : 640 kb/s

  89. Channel(s) : 6 channels

  90. Channel layout : L R C LFE Ls Rs

  91. Sampling rate : 48.0 kHz

  92. Frame rate : 31.250 FPS (1536 SPF)

  93. Compression mode : Lossy

  94. Stream size : 414 MiB (1%)

  95. Title : DD 5.1

  96. Language : English

  97. Service kind : Complete Main

  98. Default : No

  99. Forced : No

  100. Original source medium : Blu-ray


  101. Audio #4

  102. ID : 5

  103. ID in the original source medium : 4354 (0x1102)

  104. Format : DTS XLL

  105. Format/Info : Digital Theater Systems

  106. Commercial name : DTS-HD Master Audio

  107. Codec ID : A_DTS

  108. Duration : 1 h 30 min

  109. Bit rate mode : Variable

  110. Bit rate : 1 568 kb/s

  111. Channel(s) : 2 channels

  112. Channel layout : L R

  113. Sampling rate : 48.0 kHz

  114. Frame rate : 93.750 FPS (512 SPF)

  115. Bit depth : 16 bits

  116. Compression mode : Lossless

  117. Stream size : 1 014 MiB (2%)

  118. Title : DTS-HD MA 2.0

  119. Language : English

  120. Default : No

  121. Forced : No

  122. Original source medium : Blu-ray


  123. Audio #5

  124. ID : 6

  125. ID in the original source medium : 4355 (0x1103)

  126. Format : DTS XLL

  127. Format/Info : Digital Theater Systems

  128. Commercial name : DTS-HD Master Audio

  129. Codec ID : A_DTS

  130. Duration : 1 h 30 min

  131. Bit rate mode : Variable

  132. Bit rate : 2 226 kb/s

  133. Channel(s) : 6 channels

  134. Channel layout : C L R Ls Rs LFE

  135. Sampling rate : 48.0 kHz

  136. Frame rate : 93.750 FPS (512 SPF)

  137. Bit depth : 16 bits

  138. Compression mode : Lossless

  139. Stream size : 1.40 GiB (3%)

  140. Title : DTS-HD MA 5.1

  141. Language : French

  142. Default : No

  143. Forced : No

  144. Original source medium : Blu-ray


  145. Audio #6

  146. ID : 7

  147. ID in the original source medium : 4356 (0x1104)

  148. Format : DTS XLL

  149. Format/Info : Digital Theater Systems

  150. Commercial name : DTS-HD Master Audio

  151. Codec ID : A_DTS

  152. Duration : 1 h 30 min

  153. Bit rate mode : Variable

  154. Bit rate : 2 271 kb/s

  155. Channel(s) : 6 channels

  156. Channel layout : C L R Ls Rs LFE

  157. Sampling rate : 48.0 kHz

  158. Frame rate : 93.750 FPS (512 SPF)

  159. Bit depth : 16 bits

  160. Compression mode : Lossless

  161. Stream size : 1.43 GiB (3%)

  162. Title : DTS-HD MA 5.1

  163. Language : German

  164. Default : No

  165. Forced : No

  166. Original source medium : Blu-ray


  167. Audio #7

  168. ID : 8

  169. ID in the original source medium : 4357 (0x1105)

  170. Format : DTS XLL

  171. Format/Info : Digital Theater Systems

  172. Commercial name : DTS-HD Master Audio

  173. Codec ID : A_DTS

  174. Duration : 1 h 30 min

  175. Bit rate mode : Variable

  176. Bit rate : 2 259 kb/s

  177. Channel(s) : 6 channels

  178. Channel layout : C L R Ls Rs LFE

  179. Sampling rate : 48.0 kHz

  180. Frame rate : 93.750 FPS (512 SPF)

  181. Bit depth : 16 bits

  182. Compression mode : Lossless

  183. Stream size : 1.43 GiB (3%)

  184. Title : DTS-HD MA 5.1

  185. Language : Italian

  186. Default : No

  187. Forced : No

  188. Original source medium : Blu-ray


  189. Audio #8

  190. ID : 9

  191. ID in the original source medium : 4358 (0x1106)

  192. Format : AC-3

  193. Format/Info : Audio Coding 3

  194. Commercial name : Dolby Digital

  195. Codec ID : A_AC3

  196. Duration : 1 h 30 min

  197. Bit rate mode : Constant

  198. Bit rate : 640 kb/s

  199. Channel(s) : 6 channels

  200. Channel layout : L R C LFE Ls Rs

  201. Sampling rate : 48.0 kHz

  202. Frame rate : 31.250 FPS (1536 SPF)

  203. Compression mode : Lossy

  204. Stream size : 414 MiB (1%)

  205. Title : DD 5.1

  206. Language : Korean

  207. Service kind : Complete Main

  208. Default : No

  209. Forced : No

  210. Original source medium : Blu-ray


  211. Audio #9

  212. ID : 10

  213. ID in the original source medium : 4359 (0x1107)

  214. Format : AC-3

  215. Format/Info : Audio Coding 3

  216. Commercial name : Dolby Digital

  217. Codec ID : A_AC3

  218. Duration : 1 h 30 min

  219. Bit rate mode : Constant

  220. Bit rate : 640 kb/s

  221. Channel(s) : 6 channels

  222. Channel layout : L R C LFE Ls Rs

  223. Sampling rate : 48.0 kHz

  224. Frame rate : 31.250 FPS (1536 SPF)

  225. Compression mode : Lossy

  226. Stream size : 414 MiB (1%)

  227. Title : DD 5.1

  228. Language : Polish

  229. Service kind : Complete Main

  230. Default : No

  231. Forced : No

  232. Original source medium : Blu-ray


  233. Audio #10

  234. ID : 11

  235. ID in the original source medium : 4360 (0x1108)

  236. Format : AC-3

  237. Format/Info : Audio Coding 3

  238. Commercial name : Dolby Digital

  239. Codec ID : A_AC3

  240. Duration : 1 h 30 min

  241. Bit rate mode : Constant

  242. Bit rate : 640 kb/s

  243. Channel(s) : 6 channels

  244. Channel layout : L R C LFE Ls Rs

  245. Sampling rate : 48.0 kHz

  246. Frame rate : 31.250 FPS (1536 SPF)

  247. Compression mode : Lossy

  248. Stream size : 414 MiB (1%)

  249. Title : DD 5.1

  250. Language : Russian

  251. Service kind : Complete Main

  252. Default : No

  253. Forced : No

  254. Original source medium : Blu-ray


  255. Audio #11

  256. ID : 12

  257. ID in the original source medium : 4361 (0x1109)

  258. Format : DTS XLL

  259. Format/Info : Digital Theater Systems

  260. Commercial name : DTS-HD Master Audio

  261. Codec ID : A_DTS

  262. Duration : 1 h 30 min

  263. Bit rate mode : Variable

  264. Bit rate : 2 233 kb/s

  265. Channel(s) : 6 channels

  266. Channel layout : C L R Ls Rs LFE

  267. Sampling rate : 48.0 kHz

  268. Frame rate : 93.750 FPS (512 SPF)

  269. Bit depth : 16 bits

  270. Compression mode : Lossless

  271. Stream size : 1.41 GiB (3%)

  272. Title : DTS-HD MA 5.1

  273. Language : Spanish

  274. Default : No

  275. Forced : No

  276. Original source medium : Blu-ray


  277. Audio #12

  278. ID : 13

  279. ID in the original source medium : 4362 (0x110A)

  280. Format : AC-3

  281. Format/Info : Audio Coding 3

  282. Commercial name : Dolby Digital

  283. Codec ID : A_AC3

  284. Duration : 1 h 30 min

  285. Bit rate mode : Constant

  286. Bit rate : 192 kb/s

  287. Channel(s) : 2 channels

  288. Channel layout : L R

  289. Sampling rate : 48.0 kHz

  290. Frame rate : 31.250 FPS (1536 SPF)

  291. Compression mode : Lossy

  292. Stream size : 124 MiB (0%)

  293. Title : DD 2.0

  294. Language : Turkish

  295. Service kind : Complete Main

  296. Default : No

  297. Forced : No

  298. Original source medium : Blu-ray


  299. Text #1

  300. ID : 14

  301. Format : UTF-8

  302. Codec ID : S_TEXT/UTF8

  303. Codec ID/Info : UTF-8 Plain Text

  304. Duration : 1 h 24 min

  305. Bit rate : 30 b/s

  306. Count of elements : 534

  307. Stream size : 18.6 KiB (0%)

  308. Language : English

  309. Default : Yes

  310. Forced : No


  311. Text #2

  312. ID : 15

  313. Format : UTF-8

  314. Codec ID : S_TEXT/UTF8

  315. Codec ID/Info : UTF-8 Plain Text

  316. Duration : 1 h 27 min

  317. Bit rate : 33 b/s

  318. Count of elements : 636

  319. Stream size : 21.3 KiB (0%)

  320. Title : SDH

  321. Language : English

  322. Default : No

  323. Forced : No


  324. Text #3

  325. ID : 16

  326. ID in the original source medium : 4768 (0x12A0)

  327. Format : PGS

  328. Muxing mode : zlib

  329. Codec ID : S_HDMV/PGS

  330. Codec ID/Info : Picture based subtitle format used on BDs/HD-DVDs

  331. Duration : 1 h 27 min

  332. Bit rate : 20.0 kb/s

  333. Count of elements : 1323

  334. Stream size : 12.5 MiB (0%)

  335. Language : English

  336. Default : No

  337. Forced : No

  338. Original source medium : Blu-ray


  339. Text #4

  340. ID : 17

  341. ID in the original source medium : 4769 (0x12A1)

  342. Format : PGS

  343. Muxing mode : zlib

  344. Codec ID : S_HDMV/PGS

  345. Codec ID/Info : Picture based subtitle format used on BDs/HD-DVDs

  346. Duration : 1 h 24 min

  347. Bit rate : 17.8 kb/s

  348. Count of elements : 1112

  349. Stream size : 10.7 MiB (0%)

  350. Language : English

  351. Default : No

  352. Forced : No

  353. Original source medium : Blu-ray


  354. Text #5

  355. ID : 18

  356. ID in the original source medium : 4770 (0x12A2)

  357. Format : PGS

  358. Muxing mode : zlib

  359. Codec ID : S_HDMV/PGS

  360. Codec ID/Info : Picture based subtitle format used on BDs/HD-DVDs

  361. Duration : 1 h 27 min

  362. Bit rate : 20.0 kb/s

  363. Count of elements : 1323

  364. Stream size : 12.5 MiB (0%)

  365. Language : English

  366. Default : No

  367. Forced : No

  368. Original source medium : Blu-ray


  369. Text #6

  370. ID : 19

  371. ID in the original source medium : 4771 (0x12A3)

  372. Format : PGS

  373. Muxing mode : zlib

  374. Codec ID : S_HDMV/PGS

  375. Codec ID/Info : Picture based subtitle format used on BDs/HD-DVDs

  376. Duration : 1 h 24 min

  377. Bit rate : 17.8 kb/s

  378. Count of elements : 1112

  379. Stream size : 10.7 MiB (0%)

  380. Language : English

  381. Default : No

  382. Forced : No

  383. Original source medium : Blu-ray


  384. Text #7

  385. ID : 20

  386. ID in the original source medium : 4772 (0x12A4)

  387. Format : PGS

  388. Muxing mode : zlib

  389. Codec ID : S_HDMV/PGS

  390. Codec ID/Info : Picture based subtitle format used on BDs/HD-DVDs

  391. Duration : 1 h 29 min

  392. Bit rate : 9 263 b/s

  393. Count of elements : 1142

  394. Stream size : 5.95 MiB (0%)

  395. Language : Arabic

  396. Default : No

  397. Forced : No

  398. Original source medium : Blu-ray


  399. Text #8

  400. ID : 21

  401. ID in the original source medium : 4773 (0x12A5)

  402. Format : PGS

  403. Muxing mode : zlib

  404. Codec ID : S_HDMV/PGS

  405. Codec ID/Info : Picture based subtitle format used on BDs/HD-DVDs

  406. Duration : 1 h 29 min

  407. Bit rate : 14.9 kb/s

  408. Count of elements : 1148

  409. Stream size : 9.55 MiB (0%)

  410. Language : Chinese

  411. Default : No

  412. Forced : No

  413. Original source medium : Blu-ray


  414. Text #9

  415. ID : 22

  416. ID in the original source medium : 4774 (0x12A6)

  417. Format : PGS

  418. Muxing mode : zlib

  419. Codec ID : S_HDMV/PGS

  420. Codec ID/Info : Picture based subtitle format used on BDs/HD-DVDs

  421. Duration : 1 h 24 min

  422. Bit rate : 14.4 kb/s

  423. Count of elements : 806

  424. Stream size : 8.66 MiB (0%)

  425. Language : Czech

  426. Default : No

  427. Forced : No

  428. Original source medium : Blu-ray


  429. Text #10

  430. ID : 23

  431. ID in the original source medium : 4775 (0x12A7)

  432. Format : PGS

  433. Muxing mode : zlib

  434. Codec ID : S_HDMV/PGS

  435. Codec ID/Info : Picture based subtitle format used on BDs/HD-DVDs

  436. Duration : 1 h 29 min

  437. Bit rate : 14.2 kb/s

  438. Count of elements : 836

  439. Stream size : 9.10 MiB (0%)

  440. Language : Danish

  441. Default : No

  442. Forced : No

  443. Original source medium : Blu-ray


  444. Text #11

  445. ID : 24

  446. ID in the original source medium : 4776 (0x12A8)

  447. Format : PGS

  448. Muxing mode : zlib

  449. Codec ID : S_HDMV/PGS

  450. Codec ID/Info : Picture based subtitle format used on BDs/HD-DVDs

  451. Duration : 1 h 24 min

  452. Bit rate : 14.2 kb/s

  453. Count of elements : 810

  454. Stream size : 8.54 MiB (0%)

  455. Language : Dutch

  456. Default : No

  457. Forced : No

  458. Original source medium : Blu-ray


  459. Text #12

  460. ID : 25

  461. ID in the original source medium : 4777 (0x12A9)

  462. Format : PGS

  463. Muxing mode : zlib

  464. Codec ID : S_HDMV/PGS

  465. Codec ID/Info : Picture based subtitle format used on BDs/HD-DVDs

  466. Duration : 1 h 24 min

  467. Bit rate : 14.7 kb/s

  468. Count of elements : 816

  469. Stream size : 8.81 MiB (0%)

  470. Language : Finnish

  471. Default : No

  472. Forced : No

  473. Original source medium : Blu-ray


  474. Text #13

  475. ID : 26

  476. ID in the original source medium : 4778 (0x12AA)

  477. Format : PGS

  478. Muxing mode : zlib

  479. Codec ID : S_HDMV/PGS

  480. Codec ID/Info : Picture based subtitle format used on BDs/HD-DVDs

  481. Duration : 1 h 29 min

  482. Bit rate : 15.1 kb/s

  483. Count of elements : 1108

  484. Stream size : 9.68 MiB (0%)

  485. Language : French

  486. Default : No

  487. Forced : No

  488. Original source medium : Blu-ray


  489. Text #14

  490. ID : 27

  491. ID in the original source medium : 4778 (0x12AA)

  492. Format : PGS

  493. Muxing mode : zlib

  494. Codec ID : S_HDMV/PGS

  495. Codec ID/Info : Picture based subtitle format used on BDs/HD-DVDs

  496. Duration : 1 h 22 min

  497. Bit rate : 295 b/s

  498. Count of elements : 22

  499. Stream size : 179 KiB (0%)

  500. Language : French

  501. Default : No

  502. Forced : No

  503. Original source medium : Blu-ray


  504. Text #15

  505. ID : 28

  506. ID in the original source medium : 4779 (0x12AB)

  507. Format : PGS

  508. Muxing mode : zlib

  509. Codec ID : S_HDMV/PGS

  510. Codec ID/Info : Picture based subtitle format used on BDs/HD-DVDs

  511. Duration : 1 h 24 min

  512. Bit rate : 19.2 kb/s

  513. Count of elements : 946

  514. Stream size : 11.5 MiB (0%)

  515. Language : German

  516. Default : No

  517. Forced : No

  518. Original source medium : Blu-ray


  519. Text #16

  520. ID : 29

  521. ID in the original source medium : 4779 (0x12AB)

  522. Format : PGS

  523. Muxing mode : zlib

  524. Codec ID : S_HDMV/PGS

  525. Codec ID/Info : Picture based subtitle format used on BDs/HD-DVDs

  526. Duration : 48 min 11 s

  527. Bit rate : 332 b/s

  528. Count of elements : 10

  529. Stream size : 117 KiB (0%)

  530. Language : German

  531. Default : No

  532. Forced : No

  533. Original source medium : Blu-ray


  534. Text #17

  535. ID : 30

  536. ID in the original source medium : 4780 (0x12AC)

  537. Format : PGS

  538. Muxing mode : zlib

  539. Codec ID : S_HDMV/PGS

  540. Codec ID/Info : Picture based subtitle format used on BDs/HD-DVDs

  541. Duration : 1 h 24 min

  542. Bit rate : 16.0 kb/s

  543. Count of elements : 1000

  544. Stream size : 9.62 MiB (0%)

  545. Language : Greek

  546. Default : No

  547. Forced : No

  548. Original source medium : Blu-ray


  549. Text #18

  550. ID : 31

  551. ID in the original source medium : 4781 (0x12AD)

  552. Format : PGS

  553. Muxing mode : zlib

  554. Codec ID : S_HDMV/PGS

  555. Codec ID/Info : Picture based subtitle format used on BDs/HD-DVDs

  556. Duration : 1 h 24 min

  557. Bit rate : 11.6 kb/s

  558. Count of elements : 1124

  559. Stream size : 7.01 MiB (0%)

  560. Language : Hebrew

  561. Default : No

  562. Forced : No

  563. Original source medium : Blu-ray


  564. Text #19

  565. ID : 32

  566. ID in the original source medium : 4782 (0x12AE)

  567. Format : PGS

  568. Muxing mode : zlib

  569. Codec ID : S_HDMV/PGS

  570. Codec ID/Info : Picture based subtitle format used on BDs/HD-DVDs

  571. Duration : 1 h 29 min

  572. Bit rate : 12.4 kb/s

  573. Count of elements : 1142

  574. Stream size : 7.94 MiB (0%)

  575. Language : Hindi

  576. Default : No

  577. Forced : No

  578. Original source medium : Blu-ray


  579. Text #20

  580. ID : 33

  581. ID in the original source medium : 4783 (0x12AF)

  582. Format : PGS

  583. Muxing mode : zlib

  584. Codec ID : S_HDMV/PGS

  585. Codec ID/Info : Picture based subtitle format used on BDs/HD-DVDs

  586. Duration : 1 h 24 min

  587. Bit rate : 14.1 kb/s

  588. Count of elements : 818

  589. Stream size : 8.47 MiB (0%)

  590. Language : Hungarian

  591. Default : No

  592. Forced : No

  593. Original source medium : Blu-ray


  594. Text #21

  595. ID : 34

  596. ID in the original source medium : 4784 (0x12B0)

  597. Format : PGS

  598. Muxing mode : zlib

  599. Codec ID : S_HDMV/PGS

  600. Codec ID/Info : Picture based subtitle format used on BDs/HD-DVDs

  601. Duration : 1 h 29 min

  602. Bit rate : 17.2 kb/s

  603. Count of elements : 1140

  604. Stream size : 11.0 MiB (0%)

  605. Language : Italian

  606. Default : No

  607. Forced : No

  608. Original source medium : Blu-ray


  609. Text #22

  610. ID : 35

  611. ID in the original source medium : 4784 (0x12B0)

  612. Format : PGS

  613. Muxing mode : zlib

  614. Codec ID : S_HDMV/PGS

  615. Codec ID/Info : Picture based subtitle format used on BDs/HD-DVDs

  616. Duration : 1 h 23 min

  617. Bit rate : 319 b/s

  618. Count of elements : 22

  619. Stream size : 195 KiB (0%)

  620. Language : Italian

  621. Default : No

  622. Forced : No

  623. Original source medium : Blu-ray


  624. Text #23

  625. ID : 36

  626. ID in the original source medium : 4785 (0x12B1)

  627. Format : PGS

  628. Muxing mode : zlib

  629. Codec ID : S_HDMV/PGS

  630. Codec ID/Info : Picture based subtitle format used on BDs/HD-DVDs

  631. Duration : 1 h 24 min

  632. Bit rate : 12.2 kb/s

  633. Count of elements : 1144

  634. Stream size : 7.35 MiB (0%)

  635. Language : Korean

  636. Default : No

  637. Forced : No

  638. Original source medium : Blu-ray


  639. Text #24

  640. ID : 37

  641. ID in the original source medium : 4785 (0x12B1)

  642. Format : PGS

  643. Muxing mode : zlib

  644. Codec ID : S_HDMV/PGS

  645. Codec ID/Info : Picture based subtitle format used on BDs/HD-DVDs

  646. Duration : 55 min 9 s

  647. Bit rate : 381 b/s

  648. Count of elements : 34

  649. Stream size : 154 KiB (0%)

  650. Language : Korean

  651. Default : No

  652. Forced : No

  653. Original source medium : Blu-ray


  654. Text #25

  655. ID : 38

  656. ID in the original source medium : 4786 (0x12B2)

  657. Format : PGS

  658. Muxing mode : zlib

  659. Codec ID : S_HDMV/PGS

  660. Codec ID/Info : Picture based subtitle format used on BDs/HD-DVDs

  661. Duration : 1 h 29 min

  662. Bit rate : 14.1 kb/s

  663. Count of elements : 790

  664. Stream size : 9.06 MiB (0%)

  665. Language : Norwegian

  666. Default : No

  667. Forced : No

  668. Original source medium : Blu-ray


  669. Text #26

  670. ID : 39

  671. ID in the original source medium : 4787 (0x12B3)

  672. Format : PGS

  673. Muxing mode : zlib

  674. Codec ID : S_HDMV/PGS

  675. Codec ID/Info : Picture based subtitle format used on BDs/HD-DVDs

  676. Duration : 1 h 24 min

  677. Bit rate : 14.2 kb/s

  678. Count of elements : 804

  679. Stream size : 8.56 MiB (0%)

  680. Language : Polish

  681. Default : No

  682. Forced : No

  683. Original source medium : Blu-ray


  684. Text #27

  685. ID : 40

  686. ID in the original source medium : 4788 (0x12B4)

  687. Format : PGS

  688. Muxing mode : zlib

  689. Codec ID : S_HDMV/PGS

  690. Codec ID/Info : Picture based subtitle format used on BDs/HD-DVDs

  691. Duration : 1 h 29 min

  692. Bit rate : 13.7 kb/s

  693. Count of elements : 810

  694. Stream size : 8.78 MiB (0%)

  695. Language : Portuguese

  696. Default : No

  697. Forced : No

  698. Original source medium : Blu-ray


  699. Text #28

  700. ID : 41

  701. ID in the original source medium : 4789 (0x12B5)

  702. Format : PGS

  703. Muxing mode : zlib

  704. Codec ID : S_HDMV/PGS

  705. Codec ID/Info : Picture based subtitle format used on BDs/HD-DVDs

  706. Duration : 1 h 24 min

  707. Bit rate : 15.3 kb/s

  708. Count of elements : 788

  709. Stream size : 9.23 MiB (0%)

  710. Language : Russian

  711. Default : No

  712. Forced : No

  713. Original source medium : Blu-ray


  714. Text #29

  715. ID : 42

  716. ID in the original source medium : 4790 (0x12B6)

  717. Format : PGS

  718. Muxing mode : zlib

  719. Codec ID : S_HDMV/PGS

  720. Codec ID/Info : Picture based subtitle format used on BDs/HD-DVDs

  721. Duration : 1 h 24 min

  722. Bit rate : 17.8 kb/s

  723. Count of elements : 1142

  724. Stream size : 10.7 MiB (0%)

  725. Language : Spanish

  726. Default : No

  727. Forced : No

  728. Original source medium : Blu-ray


  729. Text #30

  730. ID : 43

  731. ID in the original source medium : 4790 (0x12B6)

  732. Format : PGS

  733. Muxing mode : zlib

  734. Codec ID : S_HDMV/PGS

  735. Codec ID/Info : Picture based subtitle format used on BDs/HD-DVDs

  736. Duration : 48 min 55 s

  737. Bit rate : 509 b/s

  738. Count of elements : 24

  739. Stream size : 183 KiB (0%)

  740. Language : Spanish

  741. Default : No

  742. Forced : No

  743. Original source medium : Blu-ray


  744. Text #31

  745. ID : 44

  746. ID in the original source medium : 4791 (0x12B7)

  747. Format : PGS

  748. Muxing mode : zlib

  749. Codec ID : S_HDMV/PGS

  750. Codec ID/Info : Picture based subtitle format used on BDs/HD-DVDs

  751. Duration : 1 h 24 min

  752. Bit rate : 18.3 kb/s

  753. Count of elements : 1206

  754. Stream size : 11.0 MiB (0%)

  755. Language : Spanish

  756. Default : No

  757. Forced : No

  758. Original source medium : Blu-ray


  759. Text #32

  760. ID : 45

  761. ID in the original source medium : 4792 (0x12B8)

  762. Format : PGS

  763. Muxing mode : zlib

  764. Codec ID : S_HDMV/PGS

  765. Codec ID/Info : Picture based subtitle format used on BDs/HD-DVDs

  766. Duration : 1 h 29 min

  767. Bit rate : 14.0 kb/s

  768. Count of elements : 806

  769. Stream size : 8.98 MiB (0%)

  770. Language : Swedish

  771. Default : No

  772. Forced : No

  773. Original source medium : Blu-ray


  774. Text #33

  775. ID : 46

  776. ID in the original source medium : 4793 (0x12B9)

  777. Format : PGS

  778. Muxing mode : zlib

  779. Codec ID : S_HDMV/PGS

  780. Codec ID/Info : Picture based subtitle format used on BDs/HD-DVDs

  781. Duration : 1 h 24 min

  782. Bit rate : 17.2 kb/s

  783. Count of elements : 1142

  784. Stream size : 10.3 MiB (0%)

  785. Language : Thai

  786. Default : No

  787. Forced : No

  788. Original source medium : Blu-ray


  789. Text #34

  790. ID : 47

  791. ID in the original source medium : 4794 (0x12BA)

  792. Format : PGS

  793. Muxing mode : zlib

  794. Codec ID : S_HDMV/PGS

  795. Codec ID/Info : Picture based subtitle format used on BDs/HD-DVDs

  796. Duration : 1 h 29 min

  797. Bit rate : 13.2 kb/s

  798. Count of elements : 808

  799. Stream size : 8.47 MiB (0%)

  800. Language : Turkish

  801. Default : No

  802. Forced : No

  803. Original source medium : Blu-ray


  804. Menu

  805. 00:00:00.000 : en:Chapter 01

  806. 00:06:52.412 : en:Chapter 02

  807. 00:13:02.114 : en:Chapter 03

  808. 00:16:46.630 : en:Chapter 04

  809. 00:22:37.230 : en:Chapter 05

  810. 00:28:00.428 : en:Chapter 06

  811. 00:33:23.292 : en:Chapter 07

  812. 00:38:04.824 : en:Chapter 08

  813. 00:41:05.754 : en:Chapter 09

  814. 00:47:41.692 : en:Chapter 10

  815. 00:55:28.825 : en:Chapter 11

  816. 00:59:50.128 : en:Chapter 12

  817. 01:02:47.764 : en:Chapter 13

  818. 01:09:15.109 : en:Chapter 14

  819. 01:16:25.497 : en:Chapter 15

  820. 01:22:22.896 : en:Chapter 16

复制代码

宇宙奇趣录[中文字幕].Heavy.Metal.1981.2160p.BluRay.REMUX.HEVC.DTS HD.MA.TrueHD.7.1.Atmos FGT 52.59GB  动画电影  第2张 宇宙奇趣录[中文字幕].Heavy.Metal.1981.2160p.BluRay.REMUX.HEVC.DTS HD.MA.TrueHD.7.1.Atmos FGT 52.59GB  动画电影  第3张 宇宙奇趣录[中文字幕].Heavy.Metal.1981.2160p.BluRay.REMUX.HEVC.DTS HD.MA.TrueHD.7.1.Atmos FGT 52.59GB  动画电影  第4张



文件下载


除非特别注明,本文『宇宙奇趣录[中文字幕].Heavy.Metal.1981.2160p.BluRay.REMUX.HEVC.DTS-HD.MA.TrueHD.7.1.Atmos-FGT 52.59GB』来源于互联网机器人自动抓取,非本站原创。 浮游电影网不对本文拥有版权,如有侵犯,请联系邮箱:fuyouu#yandex.com[#换成@]投诉。我们会在15个工作日内删除。 但烦请转载时请标明出处:“本文转载于『浮游电影网』,原文地址:https://www.fuyouu.com/21536.html

评论吧骚年!

发表你的见解   

昵称*

E-mail*(建议输入,以便收到博主回复的提示邮件)

验证码*

您可以使用eMule或eMule Mod(Windows)、aMule(Win、Linux、Mac)等软件下载eD2k链接。。
eMule收藏集(.emulecollection)文件是您选中的所有链接的列表文件。eMule可以直接下载它们。
按住SHIFT键选择可以选中多个选择框。
可用文件名和大小选择器来选择文件。
文件名选择器帮您根据文件名称或后缀来选择文件。不分大小写。
符号使用:
和:空格( )、+
不包含:-
或:|
转义:一对英文引号("");
匹配开头:^
匹配结尾:$
例如:
选中所有名称中包含有“eMule”或“0.49c”字眼,但不包含有“exe”字眼的:emule|0.49c -exe
选中所有名称的开头是“eMule”,结尾是“0.49c”的:^emule 0.49c$
选中所有名称中带有“eMule 0.49c”的(必须是“eMule 0.49c”,中间没有别的字符,不能是“eMule fake 0.49c”),需要转义:"emule 0.49c"
大小选择器帮您根据文件大小选择文件。